Торрент файл
скачать торрент магнет ссылка Добавлен: 30 июл 2017, 20:11
Размер: 1.13 ГБ
Сидеров: 11
Личеров: 2
Автор

СообщениеДобавлено: 30 июл 2017, 20:11 

Не в сети
Супермодератор
Аватара пользователя
Дата регистрации:
15 фев 2012, 16:44
Возраст: 28
Спасибо: 6659 / 2146
Сообщения: 46020
Перевод: Профессиональный (полное дублирование), cубтитры: отсутствуют
Формат: HDTVRip, MKV, H.264, AC3
Страна: Франция
Жанр: военный, история
Продолжительность: 00:43:58
Год выпуска: 2017

Описание:
История американского участия в Первой мировой войне. Героический и трагический рассказ об американских солдатах в этом страшном конфликте. 1917 год. В Европе Первая мировая война бушевала уже три долгих года. В течение последнего года конфликта, США вступили в войну, отправив значительный контингент войск во Францию, чтобы сражаться вместе с измученными французскими и английскими солдатами. Эти 2 миллиона американских солдат, прозванных «Сэмми» (посланных дядей Сэмом), вскоре станут бесспорными участниками победы союзников.

Видео: 1280х720 (16:9) 25 fps, AVC Н.264, ~3500 kbps avg, 0.152 bit/pixel
Аудио: 48 kHz, АС3, 2 ch, (Front: L R) ~192.00 kbps avg

Доп. информация:
Авторство релиза - alf62


Aмерика.в.Великой.войне.1917-1918.2017.AVC.720p.x264.HDTVRip.alf62.mkv
Формат : Matroska
Версия формата : Version 4 / Version 2
Размер файла : 1,13 Гбайт
Продолжительность : 43 м.
Общий поток : 3692 Кбит/сек
Дата кодирования : UTC 2017-07-29 20:21:52
Программа кодирования : mkvmerge v6.6.0 ('The Edge Of The In Between') built on Dec 1 2013 17:55:00
Библиотека кодирования : libebml v1.3.0 + libmatroska v1.4.1

Видео
Идентификатор : 1
Формат : AVC
Формат/Информация : Advanced Video Codec
Профиль формата :
Параметр CABAC формата : Да
Параметр ReFrames формата : 16 кадров
Идентификатор кодека : V_MPEG4/ISO/AVC
Продолжительность : 43 м.
Битрейт : 3500 Кбит/сек
Ширина : 1280 пикселей
Высота : 720 пикселей
Соотношение сторон : 16:9
Режим частоты кадров : Постоянный
Частота кадров : 25,000 кадров/сек
Цветовое пространство : YUV
Субдискретизация насыщенности : 4:2:0
Битовая глубина : 8 бит
Тип развёртки : Прогрессивная
Бит/(Пиксели*Кадры) : 0.152
Размер потока : 1,05 Гбайт (93%)
Библиотека кодирования : x264 core 146 r2538 121396c
Настройки программы : cabac=1 / ref=16 / deblock=1:-1:-1 / analyse=0x3:0x113 / me=umh / subme=10 / psy=1 / psy_rd=1.00:0.00 / mixed_ref=1 / me_range=32 / chroma_me=1 / trellis=2 / 8x8dct=1 / cqm=0 / deadzone=21,11 / fast_pskip=0 / chroma_qp_offset=-2 / threads=6 / lookahead_threads=1 / sliced_threads=0 / nr=0 / decimate=0 / interlaced=0 / bluray_compat=0 / constrained_intra=0 / bframes=8 / b_pyramid=2 / b_adapt=2 / b_bias=0 / direct=3 / weightb=1 / open_gop=0 / weightp=2 / keyint=250 / keyint_min=25 / scenecut=40 / intra_refresh=0 / rc_lookahead=40 / rc=2pass / mbtree=1 / bitrate=3500 / ratetol=1.0 / qcomp=0.60 / qpmin=10 / qpmax=51 / qpstep=4 / cplxblur=20.0 / qblur=0.5 / vbv_maxrate=14000 / vbv_bufsize=14000 / nal_hrd=none / filler=0 / ip_ratio=1.40 / aq=1:0.80
Default : Да
Forced : Нет

Аудио
Идентификатор : 2
Формат : AC-3
Формат/Информация : Audio Coding 3
Расширение режима : CM (complete main)
Параметр Endianness формата : Big
Идентификатор кодека : A_AC3
Продолжительность : 43 м.
Вид битрейта : Постоянный
Битрейт : 192 Кбит/сек
Каналы : 2 канала
Расположение каналов : Front: L R
Частота : 48,0 КГц
Битовая глубина : 16 бит
Метод сжатия : С потерями
Размер потока : 60,4 Мбайт (5%)
Default : Да
Forced : Нет




_________________
Проголосуй за трекер Открытый торрент трекер - RUS-MEDIA.ORG

Проголосуй Открытый торрент трекер - RUS-MEDIA.ORG



реклама партнёра


Вернуться к началу
 Профиль Отправить личное сообщение  
 
   Похожие торренты   Автор   Торрент   Размер 
В этой теме нет новых непрочитанных сообщений. NG. Америка в Великой войне 1917-1918 / America's Great War 1917-1918 [военный, история, 2017]HDTVRip, Dub

salma3

8 | 0

660.93 МБ

В этой теме нет новых непрочитанных сообщений. Рецепт Победы. Медицина в годы Великой Отечественной войны (Глеб Добровольский) [Документальный, история, военный, реконструкция, 2015] HDTVRip

Dracon

206 | 43

552.28 МБ

В этой теме нет новых непрочитанных сообщений. Чемпионат Мира 2018 / Отборочный турнир / Южная Америка / 18-й тур / Обзор матчей / FOX Sports 2 HD [Футбол, 11.10.2017, HDTVRip (720р)]

salma3

8 | 0

725.26 МБ

В этой теме нет новых непрочитанных сообщений. Эйр Америка / Air America [боевик, комедия, 1990] BDRip, Mvo

salma3

50 | 8

1.46 ГБ

В этой теме нет новых непрочитанных сообщений. Эйр Америка / Air America [Приключения, комедия, боевик, 1990] HDRip-AVC, Mvo

salma3

76 | 11

746.48 МБ

В этой теме нет новых непрочитанных сообщений. Госпожа Америка / Mistress America [Комедия, 2015] HDRip, Mvo [iTunes]

Nickolas3435

302 | 12

1.37 ГБ

В этой теме нет новых непрочитанных сообщений. Госпожа Америка / Mistress America [Комедия, 2015] BDRip 720p, Mvo [iTunes]

Dracon

30 | 1

4.87 ГБ


Начать новую тему Ответить на тему  [ 1 сообщение ] 




Для Мосгорсуда, Роскомнадзора и рекламодателей:: mosgorsud-torrent[собачка]yandex.ru