Торрент файл
скачать торрент магнет ссылка Добавлен: 08 авг 2014, 23:52
Размер: 21.63 ГБ
Сидеров: 138
Личеров: 88
Автор

СообщениеДобавлено: 08 авг 2014, 23:52 

Не в сети
Супермодератор
Аватара пользователя
Дата регистрации:
06 июн 2014, 07:51
Спасибо: 619 / 0
Сообщения: 2001
Информация
Название: Чудеса голубой планеты. Семь континентов
Оригинальное название: The Magic Of The Big Blue. Seven Continents
Год выхода: 2011
Жанр: документальный
Режиссер: Дарек Сепиоло
В ролях: Кристина Чубовная
Описание: Совершите удивительное путешествие по самым красивым и удивительным уголкам нашей голубой планеты и насладитесь её чудесами и природными феноменами.
Страна: Польша
Выпущено: Best Film CO
Продолжительность: 7 x ~ 00:47:00
Перевод: Профессиональный (полное дублирование) студия «Омикрон»
Субтитры: Русские
Формат: Matroska
Источник: Magia.Wielkiego.Blekitu.2012.1080i.BluRay.AVC.POL.Dolby.TrueHD.5.1-2DiSC.DVDSEED
Видео: 1280x720 at 25.000 fps, x264@L4.1, СRF, ~7000 kbps avg
Аудио #1: Russian: 48 kHz, DTS, 3/2 (L,C,R,l,r) + LFE ch, ~1536.00 kbps avg |Дубляж, студия «Омикрон»|
Аудио #2: Polish: 48 kHz, DTS, 3/2 (L,C,R,l,r) + LFE ch, ~1536.00 kbps avg
Episode 1: Азия
Продолжительность: 00:47:04
Филиппины, Индонезия и Малайзия лежат в центре кораллового треугольника. Здесь встречаются самые разнообразные обитатели подводного мира. Отсюда и начинается наше путешествие.
Episode 2: Австралия и Океания
Продолжительность: 00:45:05
Мы попадаем в неизведанный подводный мир. Море Бисмарка осталось в стороне от цивилизации - жизнь здесь существует лишь на крохотных островах.
Episode 3: Южная Америка
Продолжительность: 00:47:31
Восторг после посещения большого голубого и разноцветных рифов уляжется, и нам потребуется новая доза адреналина. Лучший способ ее получить - встретиться лицом к лицу с акулой.
Episode 4: Европа
Продолжительность: 00:44:30
Мы отправляемся в Европу на поиски ласковых великанов. Ежегодно Азорские острова посещают стаи китов, привлекая сюда множество туристов.
Episode 5: Африка
Продолжительность: 00:45:38
В июне и в июле на восточном побережье Южной Африки можно наблюдать удивительные явления подоводного царства. Оператор Дарек Сепиола исследует природные феномены.
Episode 6: Северная Америка
Продолжительность: 00:46:10
Дарек отправляется на полуостров Юкатан (Мексика). Он продолжает изучать чудеса Голубой планеты. Именно на Юкатане находится одно из крупнейших скоплений подводных пещер.
Episode 7: Антарктика
Продолжительность: 00:31:05
Как чудесно нырять возле громадных айсбергов! Температура воды - 2 градуса по Цельсию, и немногие отваживаются в нее нырять. Зато взору смельчаков открываются потрясающие виды.
General
Unique ID : 174231037828970001107663536217751444856 (0x8313AD63827D248092A44CAD2A1A5D78)
Complete name : The.Magic.Of.The.Big.Blue.Seven.Continents.2011.720p.HDCLUB�1.The.Magic.Of.The.Big.Blue.Seven.Continents.2011.720p.BluRay.Rus.Eng.HDCLUB.mkv
Format : Matroska
Format version : Version 2
File size : 3.67 GiB
Duration : 47mn 4s
Overall bit rate : 11.2 Mbps
Movie name : The Magic Of The Big Blue Seven Continents (2011) - Release for HDCLUB
Encoded date : UTC 2013-07-15 14:07:05
Writing application : mkvmerge v3.2.0 ('Beginnings') built on Feb 12 2010 16:46:17
Writing library : libebml v0.7.9 + libmatroska v0.8.1
Video
ID : 1
Format : AVC
Format/Info : Advanced Video Codec
Format profile : High@L4.1
Format settings, CABAC : Yes
Format settings, ReFrames : 9 frames
Codec ID : V_MPEG4/ISO/AVC
Duration : 47mn 4s
Bit rate : 7 933 Kbps
Width : 1 280 pixels
Height : 720 pixels
Display aspect ratio : 16:9
Frame rate mode : Constant
Frame rate : 25.000 fps
Color space : YUV
Chroma subsampling : 4:2:0
Bit depth : 8 bits
Scan type : Progressive
Bits/(Pixel*Frame) : 0.344
Stream size : 2.61 GiB (71%)
Title : Release for HDCLUB
Writing library : x264 core 120 r2164 da19765
Encoding settings : cabac=1 / ref=9 / deblock=1:-1:-1 / analyse=0x3:0x133 / me=umh / subme=10 / psy=1 / psy_rd=1.00:0.00 / mixed_ref=1 / me_range=24 / chroma_me=1 / trellis=2 / 8x8dct=1 / cqm=0 / deadzone=21,11 / fast_pskip=0 / chroma_qp_offset=-2 / threads=12 / sliced_threads=0 / nr=0 / decimate=0 / interlaced=0 / bluray_compat=0 / constrained_intra=0 / bframes=8 / b_pyramid=2 / b_adapt=2 / b_bias=0 / direct=3 / weightb=1 / open_gop=0 / weightp=2 / keyint=250 / keyint_min=25 / scenecut=40 / intra_refresh=0 / rc_lookahead=60 / rc=crf / mbtree=1 / crf=19.0 / qcomp=0.70 / qpmin=0 / qpmax=69 / qpstep=4 / ip_ratio=1.40 / aq=1:1.00
Language : English
Default : No
Forced : No
Audio #1
ID : 2
Format : DTS
Format/Info : Digital Theater Systems
Mode : 16
Format settings, Endianness : Big
Codec ID : A_DTS
Duration : 47mn 4s
Bit rate mode : Constant
Bit rate : 1 509 Kbps
Channel(s) : 6 channels
Channel positions : Front: L C R, Side: L R, LFE
Sampling rate : 48.0 KHz
Bit depth : 24 bits
Compression mode : Lossy
Stream size : 508 MiB (14%)
Title : DTS 5.1 @ 1536 kbps
Language : Russian
Default : Yes
Forced : No
Audio #2
ID : 3
Format : DTS
Format/Info : Digital Theater Systems
Mode : 16
Format settings, Endianness : Big
Codec ID : A_DTS
Duration : 47mn 4s
Bit rate mode : Constant
Bit rate : 1 509 Kbps
Channel(s) : 6 channels
Channel positions : Front: L C R, Side: L R, LFE
Sampling rate : 48.0 KHz
Bit depth : 24 bits
Compression mode : Lossy
Stream size : 508 MiB (14%)
Title : DTS 5.1 @ 1536 kbps
Language : Polish
Default : No
Forced : No
Text
ID : 4
Format : UTF-8
Codec ID : S_TEXT/UTF8
Codec ID/Info : UTF-8 Plain Text
Language : Russian
Default : No
Forced : No




реклама партнёра


Вернуться к началу
 Профиль Отправить личное сообщение  
 
   Похожие торренты   Автор   Торрент   Размер 
В этой теме нет новых непрочитанных сообщений. Blue System - Magic Blue [Pop, Disco, 2014] MP3, 320kbps

Dracon

54 | 4

539.69 МБ

В этой теме нет новых непрочитанных сообщений. Голубой торнадо / Blue Tornado [фантастика, боевик, триллер, 1991] DVDRip, Avo+Sub

salma3

43 | 3

831.73 МБ

В этой теме нет новых непрочитанных сообщений. Кафе Голубой ангел / Объект желания / Blue Angel Cafe [драма, мелодрама, 1989] DVDRip, Avo

salma3

83 | 25

1.45 ГБ

В этой теме нет новых непрочитанных сообщений. Загадки планеты Земля / Discovery: What on Earth? [01-02] [2015, Документальный, наука, космос, история, HDTVRip 720p]

salma3

0 | 0

2.56 ГБ

В этой теме нет новых непрочитанных сообщений. Natural Wonders Of The World In Lingerie 3 / Естественные чудеса мира в дамском белье 3 (Roy Alexandre, Blue Coyote) [2008 г., All Sex, Oral Sex, DVDRip]

salma3

6 | 2

1.15 ГБ

В этой теме нет новых непрочитанных сообщений. Семь жизней / Seven Pounds [драма, мелодрама, 2008] BDRip 720p, Dub+Sub

salma3

4 | 3

4.36 ГБ

В этой теме нет новых непрочитанных сообщений. Супер Майк XXL / Magic Mike XXL (Грегори Джейкобс) [комедия, музыка, драма, 2015] BDRip 720p, Dub+Sub [Blu-ray EUR]

Dracon

148 | 4

5.88 ГБ


Начать новую тему Ответить на тему  [ 1 сообщение ] 




Для Мосгорсуда, Роскомнадзора и рекламодателей:: mosgorsud-torrent[собачка]yandex.ru