Торрент файл
скачать торрент магнет ссылка Добавлен: 01 мар 2016, 01:30
Размер: 435.66 МБ
Сидеров: 12
Личеров: 2
Автор

СообщениеДобавлено: 01 мар 2016, 01:30 

Не в сети
Супермодератор
Аватара пользователя
Дата регистрации:
15 фев 2012, 16:44
Возраст: 28
Спасибо: 6589 / 2145
Сообщения: 44094
НЛО над Европой. Неизвестные истории. Часть 1 / National Geographic. UFO Europe. Untold Stories. Part 1

Перевод: Профессиональный (одноголосый), cубтитры: отсутствуют
Формат: HDTVRip, AVI, XviD, MP3
Страна: США
Режиссер: Дэвид Вест
Жанр: документальный, познавательный
Продолжительность: 00:44:53
Год выпуска: 2012

Описание: Небо таит в себе множество загадок. На протяжении десятилетий европейские спецслужбы изучают НЛО.Некоторые эксперты считают. что многие свидетельства имеют рациональные объяснения. Однако есть нечто, недоступное пониманию. Что это? Пришельцы из других миров? или природные явления? Смотрите и Вы всё узнаете!

Видео: 720x400 (1.80:1), 25 fps, XviD build 50 ~1225 kbps avg, 0.17 bit/pixel
Аудио: 48 kHz, MPEG Layer 3, 2 ch, ~128.00 kbps avg

NLO.nad.Evr0p0i.neizvesnie.ist0rii.chast.1.HDTVRip.by.Deadmauvlad.avi
Формат : AVI
Формат/Информация : Audio Video Interleave
Размер файла : 436 Мбайт
Продолжительность : 44 м.
Общий поток : 1363 Кбит/сек
Название фильма : NLO.nad.Evr0p0i.neizvesnie.ist0rii.chast.1.HDTVRip.by.Deadmauvlad
Режиссёр : Deadmauvlad
Жанр : Документалка
Программа кодирования : VirtualDubMod 1.5.10.3 | www.virtualdub-fr.org || (build 2550/release)
Формат оригинала/Имя : TV
Правообладатель : Goldenshara

Видео
Идентификатор : 0
Формат : MPEG-4 Visual
Профиль формата : Advanced Simple@L5
Параметр BVOP формата : 1
Параметр QPel формата : Нет
Параметр GMC формата : Без точки перехода
Параметр матрицы формата : Выборочная
Идентификатор кодека : XVID
Идентификатор кодека/Подсказка : XviD
Продолжительность : 44 м.
Битрейт : 1225 Кбит/сек
Ширина : 720 пикселей
Высота : 400 пикселей
Соотношение сторон : 16:9
Частота кадров : 25,000 кадров/сек
Цветовое пространство : YUV
Субдискретизация насыщенности : 4:2:0
Битовая глубина : 8 бит
Тип развёртки : Прогрессивная
Метод сжатия : С потерями
Бит/(Пиксели*Кадры) : 0.170
Размер потока : 392 Мбайт (90%)
Библиотека кодирования : XviD 1.2.1 (UTC 2008-12-04)

Аудио
Идентификатор : 1
Формат : MPEG Audio
Версия формата : Version 1
Профиль формата : Layer 3
Идентификатор кодека : 55
Идентификатор кодека/Подсказка : MP3
Продолжительность : 44 м.
Вид битрейта : Постоянный
Битрейт : 128 Кбит/сек
Каналы : 2 канала
Частота : 48,0 КГц
Метод сжатия : С потерями
Размер потока : 40,9 Мбайт (9%)
Выравнивание : Соединение по промежуткам
Продолжительность промежутка : 40 мс. (1,00 видеокадр)
Время предзагрузки промежутка : 504 мс.
Библиотека кодирования : LAME3.99r
Настройки программы : -m s -V 4 -q 2 -lowpass 17 -b 128














_________________
Проголосуй за трекер Открытый торрент трекер - RUS-MEDIA.ORG

Проголосуй Открытый торрент трекер - RUS-MEDIA.ORG



реклама партнёра


Вернуться к началу
 Профиль Отправить личное сообщение  
 
   Похожие торренты   Автор   Торрент   Размер 
В этой теме нет новых непрочитанных сообщений. National Geographic. НЛО над Европой / National Geographic. The UFO over Europe (Стюарт Картер) [2012, документальный, научно-познавательный, уфология, IPTVRip] VO

salma3

0 | 1

641.93 МБ

В этой теме нет новых непрочитанных сообщений. National Geographic: Путешествие к Европе / National Geographic: Journey To Europe (Марк Зануси) [2011, документальный, SATRip] VO

salma3

0 | 1

529.85 МБ

В этой теме нет новых непрочитанных сообщений. National Geographic. Взлом системы / Hacking the system [S01] [Документальный, познавательный, приключения, 2015] HDTVRip, Dub

salma3

13 | 1

2.18 ГБ

В этой теме нет новых непрочитанных сообщений. National Geographic: Жизнь в космосе / National Geographic: Living in Space (National Geographic Channels) [2014, документальный, SATRip] AVO

salma3

0 | 1

580.11 МБ

В этой теме нет новых непрочитанных сообщений. National Geographic: Тайное оружие Гитлера /National Geographic: Hitler's (Nazi) Secret Weapon (Жан-Кристоф Карон) [2010, документальный, HDTVRip] DUB

salma3

1 | 1

701.47 МБ

В этой теме нет новых непрочитанных сообщений. National Geographic. Дикий Йеллоустоун: Волчица / National Geographic. Wild Yellowstone: She Wolf [документальный , 2014] SATRip, Mvo

salma3

7 | 5

553.13 МБ

В этой теме нет новых непрочитанных сообщений. National Geographic: Удивительные обитатели Тайваня / National Geographic: Taiwan's Amazing Creatures [2011, Документальный, флора, фауна, путешествия, SATRip] DUB

salma3

0 | 2

568.3 МБ


Начать новую тему Ответить на тему  [ 1 сообщение ] 




Для Мосгорсуда, Роскомнадзора и рекламодателей:: mosgorsud-torrent[собачка]yandex.ru