Торрент файл
скачать торрент магнет ссылка Добавлен: 20 мар 2018, 16:24
Размер: 847.99 МБ
Сидеров: 0
Личеров: 0
Автор

СообщениеДобавлено: 20 мар 2018, 16:24 

Не в сети
Супермодератор
Аватара пользователя
Дата регистрации:
15 фев 2012, 16:44
Возраст: 30
Спасибо: 8128 / 2147
Сообщения: 94429
Дикая Канада: Легенды Севера / Wild Canada

Перевод: Профессиональный (одноголосый), cубтитры: отсутствуют
Формат: HDTVRip-AVC, MKV, H.264, AC3
Страна: США, Nat Geo Wild
Режиссер: Джефф Тернер
Жанр: документальный, природа, флора, фауна
Продолжительность: 00:44:00
Год выпуска: 2016

Описание: Удивительные представители дикой природы Канады, обитающие в лесах и на равнинах, в бескрайних степях прерий и в ледяных просторах Арктики, вынуждены побеждать в жестокой конкурентной борьбе за право выжить.

Видео: 1024х576 (16:9), 25 fps, AVC (x264), ~2500 kbps avg, 0.170 bit/pixel
Аудио: 48 kHz, AC3, 2 ch, ~192.00 kbps avg

Автор рипа: Zakol

Код:
Код:
Общее
Уникальный идентификатор : 314184133909895882462351997883386302870 (0xEC5DA9C4840E26646114E6B3C1A61196)
Полное имя : D:\Дикая Канада AVC (2016).mkv
Формат : Matroska
Версия формата : Version 4 / Version 2
Размер файла : 848 Мбайт
Продолжительность : 43 м. 59 с.
Общий поток : 2695 Кбит/сек
Программа кодирования : XviD4PSP 7.0.445 DAILY
Библиотека кодирования : Lavf57.71.100
ErrorDetectionType : Per level 1
ENCODING_INFO : MPEGTS > MKV / H264 > X264 VBR-2P 2500kbps HQ / MP2 > AC3 CBR 192kbps

Видео
Идентификатор : 1
Формат : AVC
Формат/Информация : Advanced Video Codec
Профиль формата :
Настройки формата : CABAC / 4 Ref Frames
Параметр CABAC формата : Да
Параметр RefFrames формата : 4 кадра
Идентификатор кодека : V_MPEG4/ISO/AVC
Продолжительность : 43 м. 59 с.
Битрейт : 2500 Кбит/сек
Ширина : 1024 пикселя
Высота : 576 пикселей
Соотношение сторон : 16:9
Режим частоты кадров : Постоянный
Частота кадров : 25,000 кадров/сек
Цветовое пространство : YUV
Субдискретизация насыщенности : 4:2:0
Битовая глубина : 8 бит
Тип развёртки : Прогрессивная
Бит/(Пиксели*Кадры) : 0.170
Размер потока : 771 Мбайт (91%)
Библиотека кодирования : x264 core 155 r2901M 7d0ff22
Настройки программы : cabac=1 / ref=3 / deblock=1:-1:-1 / analyse=0x3:0x133 / me=hex / subme=7 / psy=1 / psy_rd=1.00:0.20 / mixed_ref=1 / me_range=16 / chroma_me=1 / trellis=1 / 8x8dct=1 / cqm=0 / deadzone=21,11 / fast_pskip=1 / chroma_qp_offset=-3 / threads=9 / lookahead_threads=1 / sliced_threads=0 / nr=0 / decimate=1 / interlaced=0 / bluray_compat=0 / constrained_intra=0 / bframes=3 / b_pyramid=2 / b_adapt=2 / b_bias=0 / direct=3 / weightb=1 / open_gop=0 / weightp=2 / keyint=250 / keyint_min=25 / scenecut=40 / intra_refresh=0 / rc_lookahead=40 / rc=2pass / mbtree=1 / bitrate=2500 / ratetol=1.0 / qcomp=0.60 / qpmin=0 / qpmax=69 / qpstep=4 / cplxblur=20.0 / qblur=0.5 / ip_ratio=1.40 / aq=1:1.00
Default : Да
Forced : Нет

Аудио
Идентификатор : 2
Формат : AC-3
Формат/Информация : Audio Coding 3
Идентификатор кодека : A_AC3
Продолжительность : 43 м. 59 с.
Вид битрейта : Постоянный
Битрейт : 192 Кбит/сек
Каналы : 2 канала
Расположение каналов : Front: L R
Частота : 48,0 КГц
Частота кадров : 31,250 кадров/сек (1536 SPF)
Битовая глубина : 16 бит
Метод сжатия : С потерями
Размер потока : 60,4 Мбайт (7%)
Язык : Russian
ServiceKind/String : Complete Main
Default : Да
Forced : Нет

















_________________
Проголосуй за трекер Открытый торрент трекер - RUS-MEDIA.ORG

Проголосуй Открытый торрент трекер - RUS-MEDIA.ORG


Скачать книги и аудио книги через торрент


Вернуться к началу
 Профиль Отправить личное сообщение  
 
   Похожие торренты   Автор   Торрент   Размер 
В этой теме нет новых непрочитанных сообщений. Дикая Канада: Легенды Севера / Wild Canada (Джефф Тернер) [2016, документальный, природа, флора, фауна, HDTVRip] VO

salma3

0 | 0

630.17 МБ

В этой теме нет новых непрочитанных сообщений. Дикая природа Новой Зеландии / Wild New Zealand (New Zealand: Earth's Mythical Islands) (1-3 серии из 3) [документальный, фауна, флора, 2016] HDTVRip, Avo

salma3

39 | 10

2.03 ГБ

В этой теме нет новых непрочитанных сообщений. Дикая природа Китая. Удивительные животные / China's wild side (Лорни Тауненд) [2017, документальный, фауна, флора, HDTVRip] VO

salma3

0 | 0

612.99 МБ

В этой теме нет новых непрочитанных сообщений. Год диких животных: Сибирь / Siberia's wild year (Дэвид Хэй) [2017, документальный, природа, флора, фауна, HDTVRip-AVC] VO

salma3

0 | 0

847.37 МБ

В этой теме нет новых непрочитанных сообщений. Год диких животных: Сибирь / Siberia's wild year (Дэвид Хэй) [2017, документальный, природа, флора, фауна, HDTVRip] VO

salma3

1 | 1

629.51 МБ

В этой теме нет новых непрочитанных сообщений. Nat Geo Wild: Дикая природа Шотландии: Высокогорье / Wild Scotland. Highlands [01-04] (2016) HDTVRip-AVC | P1

salma3

0 | 0

3.31 ГБ

В этой теме нет новых непрочитанных сообщений. Слепая обезьяна / The Blind Monkey (Рамон Кампоамор) [2016, документальный, природа, фауна, HDTVRip-AVC] VO

salma3

0 | 0

848.17 МБ


Начать новую тему Ответить на тему  [ 1 сообщение ] 




Для Мосгорсуда, Роскомнадзора и рекламодателей:: mosgorsud-torrent[собачка]yandex.ru
cron