Торрент файл
скачать торрент магнет ссылка Добавлен: 02 фев 2017, 14:27
Размер: 10.79 ГБ
Сидеров: 67
Личеров: 109
Автор

СообщениеДобавлено: 02 фев 2017, 14:27 

Не в сети
Супермодератор
Аватара пользователя
Дата регистрации:
15 фев 2012, 16:44
Возраст: 28
Спасибо: 6563 / 2129
Сообщения: 43556
Год выпуска: 2013
Жанр: документальный
Выпущено: США
Перевод: Дублированный


Сюжет фильма:
Это сенсационное погружение в среду самых страшных хищников планеты раскрывается через невероятную съемку и самые современные технологии кинопроизводства.

Episode 1: Wet / В воде
В водах нашей планеты хищники всех форм и размеров встречают множество преград на пути к успеху и выживанию.

Episode 2: Stealth / В лесах
Лесные хищники должны уметь жить в мире, где пища или соперники могут находиться сзади, внизу или вверху.

Episode 3: Naked / На виду
Хищники, обитающие на открытых пространствах, должны уметь прятаться будучи у всех на виду или же, как полосатый мангуст, брать числом.

Episode 4: Exposed / На границе
Обитающие на границах гор, лесов, рек и океанов природные охотники должны иметь особые навыки, чтобы выжить.



Качество: BDRip 720p
Формат: AVC (библиотека кодирования x.264)
Контейнер (Расширение): MKV
Видео: 1280x720, ~7500 Кбит/сек, 25 кадр/сек, 0,329 Бит/[Пиксели*Кадры]
Аудио №1: русский / AC3 / 5.1 / 48 kHz / 640 kbps / |Дублированный|
Аудио №2: английский / AC3 / 5.1 / 48 kHz / 640 kbps /
Навигация по главам(Чаптеры): есть
Продолжительность: 4 x ~ 00:44:00

Автор рипа: Группа:


Format : Matroska
Format version : Version 2
File size : 2.72 GiB
Duration : 44 min
Overall bit rate : 8 853 kb/s
Movie name : Secret Life of Predators.E1.Wet.(2013).BDRip.720p.[denis100]
Encoded date : UTC 2017-02-01 09:26:23
Writing application : mkvmerge v5.8.0 ('No Sleep / Pillow') built on Sep 2 2012 15:37:04
Writing library : libebml v1.2.3 + libmatroska v1.3.0

Video
ID : 1
Format : AVC
Format/Info : Advanced Video Codec
Format profile : High@L4.1
Format settings, CABAC : Yes
Format settings, ReFrames : 9 frames
Codec ID : V_MPEG4/ISO/AVC
Duration : 44 min
Bit rate : 7 574 kb/s
Width : 1 280 pixels
Height : 720 pixels
Display aspect ratio : 16:9
Frame rate mode : Constant
Frame rate : 25.000 FPS
Color space : YUV
Chroma subsampling : 4:2:0
Bit depth : 8 bits
Scan type : Progressive
Bits/(Pixel*Frame) : 0.329
Stream size : 2.27 GiB (84%)
Title : Secret Life of Predators.E1.Wet.(2013).BDRip.720p.[denis100]
Writing library : x264 core 148 r2744 b97ae06
Encoding settings : cabac=1 / ref=9 / deblock=1:-3:-3 / analyse=0x3:0x133 / me=umh / subme=11 / psy=1 / psy_rd=1.00:0.05 / mixed_ref=1 / me_range=32 / chroma_me=1 / trellis=2 / 8x8dct=1 / cqm=0 / deadzone=21,11 / fast_pskip=0 / chroma_qp_offset=-3 / threads=6 / lookahead_threads=1 / sliced_threads=0 / nr=0 / decimate=1 / interlaced=0 / bluray_compat=0 / constrained_intra=0 / bframes=8 / b_pyramid=2 / b_adapt=2 / b_bias=0 / direct=3 / weightb=1 / open_gop=0 / weightp=2 / keyint=250 / keyint_min=25 / scenecut=40 / intra_refresh=0 / rc=2pass / mbtree=0 / bitrate=7574 / ratetol=1.0 / qcomp=0.60 / qpmin=0 / qpmax=69 / qpstep=4 / cplxblur=20.0 / qblur=0.5 / ip_ratio=1.40 / pb_ratio=1.30 / aq=1:0.95
Language : English
Default : Yes
Forced : No

Audio #1
ID : 2
Format : AC-3
Format/Info : Audio Coding 3
Mode extension : CM (complete main)
Format settings, Endianness : Big
Codec ID : A_AC3
Duration : 44 min
Bit rate mode : Constant
Bit rate : 640 kb/s
Channel(s) : 6 channels
Channel positions : Front: L C R, Side: L R, LFE
Sampling rate : 48.0 kHz
Frame rate : 31.250 FPS (1536 spf)
Compression mode : Lossy
Stream size : 202 MiB (7%)
Title : Дубляж
Language : Russian
Default : Yes
Forced : No

Audio #2
ID : 3
Format : AC-3
Format/Info : Audio Coding 3
Mode extension : CM (complete main)
Format settings, Endianness : Big
Codec ID : A_AC3
Duration : 44 min
Bit rate mode : Constant
Bit rate : 640 kb/s
Channel(s) : 6 channels
Channel positions : Front: L C R, Side: L R, LFE
Sampling rate : 48.0 kHz
Frame rate : 31.250 FPS (1536 spf)
Compression mode : Lossy
Stream size : 202 MiB (7%)
Language : English
Default : No
Forced : No

Menu
00:00:00.000 : en:Chapter 01
00:03:30.840 : en:Chapter 02
00:06:47.560 : en:Chapter 03
00:11:11.640 : en:Chapter 04
00:15:09.479 : en:Chapter 05
00:18:51.920 : en:Chapter 06
00:22:57.159 : en:Chapter 07
00:26:23.399 : en:Chapter 08
00:30:40.800 : en:Chapter 09
00:34:43.920 : en:Chapter 10
00:38:20.640 : en:Chapter 11
00:42:04.560 : en:Chapter 12


_________________
Проголосуй за трекер Открытый торрент трекер - RUS-MEDIA.ORG

Проголосуй Открытый торрент трекер - RUS-MEDIA.ORG



реклама партнёра


Вернуться к началу
 Профиль Отправить личное сообщение  
 
   Похожие торренты   Автор   Торрент   Размер 
В этой теме нет новых непрочитанных сообщений. Тайная жизнь домашних животных / The Secret Life of Pets (мультфильм, комедия, приключения, семейный, 2016) BDRip 720p от Scarabey | Лицензия

marya111

275 | 94

2.66 ГБ

В этой теме нет новых непрочитанных сообщений. Тайная жизнь домашних животных / The Secret Life of Pets (мультфильм, комедия, приключения, семейный, 2016) BDRip 720p от HQCLUB | D | Лицензия

marya111

0 | 2

5.19 ГБ

В этой теме нет новых непрочитанных сообщений. Тайная жизнь домашних животных / The Secret Life of Pets (Ярроу Чейни, Крис Рено) [2016, мультфильм, комедия, приключения, семейный, BDRip 720p | iTunes]

marya111

298 | 32

4.21 ГБ

В этой теме нет новых непрочитанных сообщений. Тайная жизнь домашних животных / The Secret Life of Pets [мультфильм, комедия, семейный, 2016] BDRip-AVC, Dub [iTunes]

salma3

131 | 31

1.42 ГБ

В этой теме нет новых непрочитанных сообщений. Тайная жизнь домашних животных / The Secret Life of Pets [мультфильм, комедия, семейный, 2016] BDRip, Dub [Лицензия]

salma3

120 | 22

1.45 ГБ

В этой теме нет новых непрочитанных сообщений. Тайная жизнь домашних животных / The Secret Life of Pets [мультфильм, комедия, приключения, семейный, 2016] BDRip-AVC, Dub [iTunes]

salma3

321 | 96

2.14 ГБ

В этой теме нет новых непрочитанных сообщений. Тайная жизнь домашних животных / The Secret Life of Pets (Мультфильм, комедия, семейный, полнометражный, 2016) BDRip 1080p | 60 FPS | LINE

marya111

167 | 16

6.27 ГБ


Начать новую тему Ответить на тему  [ 1 сообщение ] 




Для Мосгорсуда, Роскомнадзора и рекламодателей:: mosgorsud-torrent[собачка]yandex.ru