COVID-19 - Последняя информация о коронавирусе на сайте Минздрава




Торрент файл
скачать торрент магнет ссылка Добавлен: 26 дек 2011, 00:15
Размер: 1.13 ГБ
Сидеров: 2
Личеров: 8
Автор

СообщениеДобавлено: 26 дек 2011, 00:15 

Не в сети
Супермодератор
Аватара пользователя
Дата регистрации:
22 май 2010, 11:03
Возраст: 36
Спасибо: 7931 / 13
Сообщения: 49828
2 гвардейская: Несокрушимая и легендарная


Перевод: Не требуется, cубтитры: отсутствуют
Формат: DVDRip, MPEG, DivX, AC3
Страна: Россия
Режиссер: Алексей Петров
Жанр: документальный
Продолжительность: 00:26:00
Год выпуска: 2011

Описание: История создания 2 гвардейской армии. Боевой путь в Великой Отечественной войне. При создании фильма была использована хроника ВОВ.

Видео: 720x576 (4:3), 25.000 fps, MPEG Video (Version 2), ~ 5676 Kbps avg, 0.547 bit/pixel
Аудио: 48 kHz, AC3 Dolby Digital, 2 ch, (Front: L R), ~ 128.00 kbps avg

General
Complete name: E:\torrents\nesokrushimaya_i_legendarnaya_[tfile.ru].mpg
Format: MPEG-PS
File size: 1.13 GiB
Duration: 26mn 0s
Overall bit rate: 6 249 Kbps

Video
ID: 224 (0xE0)
Format: MPEG Video
Format version: Version 2
Format profile: Main@Main
Format settings, BVOP: Yes
Format settings, Matrix: Default
Format settings, GOP: M=3, N=15
Duration: 26mn 0s
Bit rate mode: Variable
Bit rate: 5 676 Kbps
Nominal bit rate: 9 000 Kbps
Width: 720 pixels
Height: 576 pixels
Display aspect ratio: 16:9
Frame rate: 25.000 fps
Standard: PAL
Color space: YUV
Chroma subsampling: 4:2:0
Bit depth: 8 bits
Scan type: Progressive
Compression mode: Lossy
Bits/(Pixel*Frame): 0.547
Stream size: 1.03 GiB (91%)

Audio
ID: 128 (0x80)
Format: AC-3
Format/Info: Audio Coding 3
Mode extension: CM (complete main)
Duration: 26mn 0s
Bit rate mode: Constant
Bit rate: 448 Kbps
Channel(s): 2 channels
Channel positions: Front: L R
Sampling rate: 48.0 KHz
Bit depth: 16 bits
Compression mode: Lossy
Stream size: 83.3 MiB (7%)








Поделиться:



Скачать книги и аудио книги через торрент


Вернуться к началу
 Профиль Отправить личное сообщение  
 
   Похожие торренты   Автор   Торрент   Размер 
В этой теме нет новых непрочитанных сообщений. Вторая жизнь / Deuxième vie [комедия, фэнтези, 2000] DVDRip, Mvo

salma3

0 | 2

1.89 ГБ

В этой теме нет новых непрочитанных сообщений. Kitty ( Kitty Jung, Lil Miss Kitty, Kitty Katzu ) Легендарная малышка азиатского порно / MegaPack 154 ролика [ 2003-2014 Teen, Oral, Lesbo, Handjob, Solo, Group, DP, Gangbang, Creampie, BDSM, Hardcore ]

salma3

10 | 6

37.75 ГБ

В этой теме нет новых непрочитанных сообщений. Война на крышах / Rooftops [драма, боевик, 1989] DVDRip, Avo

salma3

0 | 0

1.45 ГБ

В этой теме нет новых непрочитанных сообщений. Домашняя война / Morgan Stewart's Coming Home [комедия, 1987] DVDRip, Avo

salma3

0 | 1

1.45 ГБ

В этой теме нет новых непрочитанных сообщений. Война полиций / La guerre des polices [драма, криминал, 1979] DVDRip-AVC, Mvo

salma3

0 | 0

1.74 ГБ

В этой теме нет новых непрочитанных сообщений. Вторая первая любовь [01-04 из 04] [Детектив, мелодрама, 2018] WEB-DL 1080p

salma3

0 | 0

6.24 ГБ

В этой теме нет новых непрочитанных сообщений. ЧУМА! Вторая волна / Plague! (Сезон 1-2 , Серия 1-14 из 14 ) ( Андрей Богатырёв) [2020, Комедия , WEB-DLRip - HEVC - 1080p]

Враг Нароода

2 | 1

8.08 ГБ


Начать новую тему Ответить на тему  [ 1 сообщение ] 




Для Мосгорсуда, Роскомнадзора и рекламодателей:: rstracker[собака]yandex.ru
cron
cron