COVID-19 - Последняя информация о коронавирусе на сайте Минздрава




Торрент файл
скачать торрент магнет ссылка Добавлен: 26 дек 2011, 00:14
Размер: 500.02 МБ
Сидеров: 0
Личеров: 7
Автор

СообщениеДобавлено: 26 дек 2011, 00:14 

Не в сети
Супермодератор
Аватара пользователя
Дата регистрации:
22 май 2010, 11:03
Возраст: 36
Спасибо: 7931 / 13
Сообщения: 49828
Вторая Мировая - Битва за Новую Британию (Фильм 2) / Attack! The Battle For New Britain


Перевод: Профессиональный (одноголосый), cубтитры: отсутствуют
Формат: DVDRip, AVI, XviD, MP3
Страна: США
Режиссер: Дэвид Раксин
Жанр: документальный
Продолжительность: 00:58:30
Год выпуска: 1944

Описание: В фильме рассказывается о подготовке и проведении одной их ключевых операций второй мировой на Tихом океане - освобождение о. Новая Британия(архипелаг Бисмарка). На этом острове с конца 1941 года действовала крупнейшая военно-морская база Японии-Рабаул. За два года японцы превратили порт в неприступную крепость,гарнизон ее насчитывал более 100 тысяч человек. В конце1943 года началась операция по освобождению о.Новая Британия и блокады Рабаула. Фильм снят министерством обороны США в 1944г.

Видео: 592x448 (1.32:1), 23.976 fps, XviD 1.2 beta 1 (build 43) ~1075 kbps avg, 0.17 bit/pixel
Аудио: 44.100 kHz, MPEG Layer 3, 2 ch, ~112.00 kbps avg



Доп. информация:
Фильм 1 "Атака в Тихом океане"

General
Complete name: E:\torrents\new_brit_attack_[tfile.ru].avi
Format: AVI
Format/Info: Audio Video Interleave
File size: 500 MiB
Duration: 58mn 30s
Overall bit rate: 1 195 Kbps
Writing application: VirtualDubMod 1.5.4.1 (build 2178/release)
Writing library: VirtualDubMod build 2178/release

Video
ID: 0
Format: MPEG-4 Visual
Format profile: Advanced Simple@L5
Format settings, BVOP: 1
Format settings, QPel: No
Format settings, GMC: No warppoints
Format settings, Matrix: Custom
Codec ID: XVID
Codec ID/Hint: XviD
Duration: 58mn 30s
Bit rate: 1 076 Kbps
Width: 592 pixels
Height: 448 pixels
Display aspect ratio: 4:3
Frame rate: 23.976 fps
Color space: YUV
Chroma subsampling: 4:2:0
Bit depth: 8 bits
Scan type: Progressive
Compression mode: Lossy
Bits/(Pixel*Frame): 0.169
Stream size: 450 MiB (90%)
Writing library: XviD 1.2.0SMP (UTC 2006-01-08.)

Audio
ID: 1
Format: MPEG Audio
Format version: Version 1
Format profile: Layer 3
Mode: Joint stereo
Mode extension: MS Stereo
Codec ID: 55
Codec ID/Hint: MP3
Duration: 58mn 30s
Bit rate mode: Constant
Bit rate: 112 Kbps
Channel(s): 2 channels
Sampling rate: 44.1 KHz
Compression mode: Lossy
Stream size: 46.9 MiB (9%)
Alignment: Split accross interleaves
Interleave, duration: 83 ms (2.00 video frames)
Interleave, preload duration: 500 ms
Writing library: LAME3.97b
Encoding settings: -m j -V 4 -q 2 -lowpass 15.6 -b 112









Поделиться:



Скачать книги и аудио книги через торрент


Вернуться к началу
 Профиль Отправить личное сообщение  
 
   Похожие торренты   Автор   Торрент   Размер 
В этой теме нет новых непрочитанных сообщений. Вторая жизнь / Deuxième vie [комедия, фэнтези, 2000] DVDRip, Mvo

salma3

0 | 2

1.89 ГБ

В этой теме нет новых непрочитанных сообщений. Elegant Angel - Битва задниц 4 / Battle of the Asses 4 (2012) DVDRip

zorgi

0 | 3

1.37 ГБ

В этой теме нет новых непрочитанных сообщений. Вторая первая любовь [01-04 из 04] [Детектив, мелодрама, 2018] WEB-DL 1080p

salma3

0 | 0

6.24 ГБ

В этой теме нет новых непрочитанных сообщений. ЧУМА! Вторая волна / Plague! (Сезон 1-2 , Серия 1-14 из 14 ) ( Андрей Богатырёв) [2020, Комедия , WEB-DLRip - HEVC - 1080p]

Враг Нароода

2 | 1

8.08 ГБ

В этой теме нет новых непрочитанных сообщений. Битва в Арденнах / Battle of the Bulge [военный, боевик, драма, 1965] BDRip, Mvo

salma3

0 | 0

2.18 ГБ

В этой теме нет новых непрочитанных сообщений. Великая битва / Ansiseong / The Great Battle [боевик, военный, история, 2018] WEBRip, Mvo

salma3

0 | 0

2.18 ГБ

В этой теме нет новых непрочитанных сообщений. Бесстрашный. Битва при Мидуэй / Dauntless: The Battle of Midway [военный, 2019] WEBDLRip, Mvo

salma3

48 | 7

1.37 ГБ


Начать новую тему Ответить на тему  [ 1 сообщение ] 




Для Мосгорсуда, Роскомнадзора и рекламодателей:: rstracker[собака]yandex.ru
cron