COVID-19 - Последняя информация о коронавирусе на сайте Минздрава




Торрент файл
скачать торрент магнет ссылка Добавлен: 26 дек 2011, 00:14
Размер: 500.04 МБ
Сидеров: 5
Личеров: 7
Автор

СообщениеДобавлено: 26 дек 2011, 00:14 

Не в сети
Супермодератор
Аватара пользователя
Дата регистрации:
22 май 2010, 11:03
Возраст: 36
Спасибо: 7931 / 13
Сообщения: 49828
Вторая Мировая - Направление Токио (Фильм 3) / Appointment in Tokyo


Перевод: Профессиональный (одноголосый), cубтитры: отсутствуют
Формат: DVDRip, AVI, XviD, MP3
Страна: США
Режиссер: Джек Хайвли
Жанр: документальный
Продолжительность: 00:54:24
Год выпуска: 1945

Описание: Фильм снят Министерством обороны США в 1945 г. сразу после окончания войны и капитуляции Японии.
Большая часть фильма посвещена операции по освобождению Филлипин в 1944г. Во второй части
подробно освещена процедура подписания Японией капитуляции на борту линкора Миссури в августе 1945г.
С гордостью упомянуты атомные бомбардировки Хиросимы и Нагасаки.


Видео: 576x432 (1.33:1), 29.970 fps, XviD 1.2 beta 1 (build 43) ~1164 kbps avg, 0.16 bit/pixel
Аудио: 44.100 kHz, MPEG Layer 3, 2 ch, ~112.00 kbps avg



Доп. информация:
Фильм 1 "Атака в Тихом океане"
Фильм 2 "Битва за Новую Британию"

General
Complete name: E:\torrents\tokio_attack_[tfile.ru].avi
Format: AVI
Format/Info: Audio Video Interleave
File size: 500 MiB
Duration: 54mn 24s
Overall bit rate: 1 285 Kbps
Writing application: VirtualDubMod 1.5.4.1 (build 2178/release)
Writing library: VirtualDubMod build 2178/release

Video
ID: 0
Format: MPEG-4 Visual
Format profile: Advanced Simple@L5
Format settings, BVOP: 1
Format settings, QPel: No
Format settings, GMC: No warppoints
Format settings, Matrix: Custom
Codec ID: XVID
Codec ID/Hint: XviD
Duration: 54mn 24s
Bit rate: 1 164 Kbps
Width: 576 pixels
Height: 432 pixels
Display aspect ratio: 4:3
Frame rate: 29.970 fps
Color space: YUV
Chroma subsampling: 4:2:0
Bit depth: 8 bits
Scan type: Progressive
Compression mode: Lossy
Bits/(Pixel*Frame): 0.156
Stream size: 453 MiB (91%)
Writing library: XviD 1.2.0SMP (UTC 2006-01-0

Audio
ID: 1
Format: MPEG Audio
Format version: Version 1
Format profile: Layer 3
Mode: Joint stereo
Mode extension: MS Stereo
Codec ID: 55
Codec ID/Hint: MP3
Duration: 54mn 24s
Bit rate mode: Constant
Bit rate: 112 Kbps
Channel(s): 2 channels
Sampling rate: 44.1 KHz
Compression mode: Lossy
Stream size: 43.6 MiB (9%)
Alignment: Split accross interleaves
Interleave, duration: 67 ms (2.00 video frames)
Interleave, preload duration: 500 ms
Writing library: LAME3.97b
Encoding settings: -m j -V 4 -q 2 -lowpass 15.6 -b 112









Поделиться:



Скачать книги и аудио книги через торрент


Вернуться к началу
 Профиль Отправить личное сообщение  
 
   Похожие торренты   Автор   Торрент   Размер 
В этой теме нет новых непрочитанных сообщений. Разборки в Маленьком Токио / Showdown In Little Tokyo [Боевик, 1991] BDRip 720р, Dub

salma3

0 | 0

3.5 ГБ

В этой теме нет новых непрочитанных сообщений. Вторая жизнь / Deuxième vie [комедия, фэнтези, 2000] DVDRip, Mvo

salma3

0 | 2

1.89 ГБ

В этой теме нет новых непрочитанных сообщений. Вторая первая любовь [01-04 из 04] [Детектив, мелодрама, 2018] WEB-DL 1080p

salma3

0 | 0

6.24 ГБ

В этой теме нет новых непрочитанных сообщений. ЧУМА! Вторая волна / Plague! (Сезон 1-2 , Серия 1-14 из 14 ) ( Андрей Богатырёв) [2020, Комедия , WEB-DLRip - HEVC - 1080p]

Враг Нароода

2 | 1

8.08 ГБ

В этой теме нет новых непрочитанных сообщений. Токийская полиция крови / Tokyo Gore Police / Tôkyô zankoku keisatsu [Ужасы, боевик, комедия, 2008] HDRip-AVC, Dvo [НТВ+]

salma3

0 | 0

745.82 МБ

В этой теме нет новых непрочитанных сообщений. Свидание со смертью / Appointment with Death [триллер, драма, криминал, 1988] BDRip, Mvo

salma3

0 | 0

1.45 ГБ

В этой теме нет новых непрочитанных сообщений. Свидание со смертью / Appointment with Death [триллер, драма, криминал, 1988] BDRemux 1080p, Mvo

salma3

0 | 0

25.01 ГБ


Начать новую тему Ответить на тему  [ 1 сообщение ] 




Для Мосгорсуда, Роскомнадзора и рекламодателей:: rstracker[собака]yandex.ru
cron