COVID-19 - Последняя информация о коронавирусе на сайте Минздрава




Торрент файл
скачать торрент магнет ссылка Добавлен: 26 дек 2011, 00:13
Размер: 500.71 МБ
Сидеров: 10
Личеров: 8
Автор

СообщениеДобавлено: 26 дек 2011, 00:13 

Не в сети
Супермодератор
Аватара пользователя
Дата регистрации:
22 май 2010, 11:03
Возраст: 36
Спасибо: 7931 / 13
Сообщения: 49828
Вторая Мировая - Разделить и победить (Фильм 6) / Divide and Conquer


Перевод: Профессиональный (одноголосый), cубтитры: отсутствуют
Формат: DVDRip, AVI, XviD, MP3
Страна: США
Режиссер: Фрэнк Капра, Анатоль Литвак
Жанр: документальный
Продолжительность: 00:56:49
Год выпуска: 1943

Описание: Кинохроника, состоящая из кадров, карт и документальных хроник нападения Гитлера на Европу. Вы увидите, как нацисты завоевывают Данию и Норвегию, увидите отражение нападений нацистов британскими войсками и позорную капитуляцию Франции. Также мы увидим, как разрушительная тактика нацистов и предательские действия перебежчиков привели к падению практически всех государств Центральной Европы.



Видео: 592x448 (1.32:1), 23.976 fps, XviD Final 1.1 (build 41) ~1097 kbps avg, 0.17 bit/pixel
Аудио: 48 kHz, MPEG Layer 3, 2 ch, ~128.00 kbps avg

Доп. информация:
Фильм 1 "Атака в Тихом океане"
Фильм 2 "Битва за Новую Британию"
Фильм 3 "Направление Токио"
Фильм 4 "Битва за Россию"
Фильм 5 "Прелюдия к войне"

General
Complete name: E:\torrents\divide_and_conquer_[tfile.ru].avi
Format: AVI
Format/Info: Audio Video Interleave
File size: 501 MiB
Duration: 56mn 49s
Overall bit rate: 1 232 Kbps
Writing application: VirtualDubMod 1.5.4.1 (build 2178/release)
Writing library: VirtualDubMod build 2178/release

Video
ID: 0
Format: MPEG-4 Visual
Format profile: Advanced Simple@L5
Format settings, BVOP: 1
Format settings, QPel: No
Format settings, GMC: No warppoints
Format settings, Matrix: Custom
Codec ID: XVID
Codec ID/Hint: XviD
Duration: 56mn 49s
Bit rate: 1 097 Kbps
Width: 592 pixels
Height: 448 pixels
Display aspect ratio: 4:3
Frame rate: 23.976 fps
Color space: YUV
Chroma subsampling: 4:2:0
Bit depth: 8 bits
Scan type: Progressive
Compression mode: Lossy
Bits/(Pixel*Frame): 0.173
Stream size: 446 MiB (89%)
Writing library: XviD 1.1.0 (UTC 2005-11-22)

Audio
ID: 1
Format: MPEG Audio
Format version: Version 1
Format profile: Layer 3
Mode: Joint stereo
Mode extension: MS Stereo
Codec ID: 55
Codec ID/Hint: MP3
Duration: 56mn 49s
Bit rate mode: Constant
Bit rate: 128 Kbps
Channel(s): 2 channels
Sampling rate: 48.0 KHz
Compression mode: Lossy
Stream size: 52.0 MiB (10%)
Alignment: Aligned on interleaves
Interleave, duration: 83 ms (2.00 video frames)
Interleave, preload duration: 504 ms
Writing library: LAME3.97
Encoding settings: -m j -V 4 -q 2 -lowpass 17 -b 128
Language: Russian








Поделиться:



Скачать книги и аудио книги через торрент


Вернуться к началу
 Профиль Отправить личное сообщение  
 
   Похожие торренты   Автор   Торрент   Размер 
В этой теме нет новых непрочитанных сообщений. Вторая жизнь / Deuxième vie [комедия, фэнтези, 2000] DVDRip, Mvo

salma3

0 | 2

1.89 ГБ

В этой теме нет новых непрочитанных сообщений. Вторая первая любовь [01-04 из 04] [Детектив, мелодрама, 2018] WEB-DL 1080p

salma3

0 | 0

6.24 ГБ

В этой теме нет новых непрочитанных сообщений. ЧУМА! Вторая волна / Plague! (Сезон 1-2 , Серия 1-14 из 14 ) ( Андрей Богатырёв) [2020, Комедия , WEB-DLRip - HEVC - 1080p]

Враг Нароода

2 | 1

8.08 ГБ

В этой теме нет новых непрочитанных сообщений. Победить или умереть / Do or Die [Боевик, приключения, 1991] BDRip-AVC, Mvo

salma3

0 | 1

746.44 МБ

В этой теме нет новых непрочитанных сообщений. Победить или умереть / Do or Die [Боевик, приключения, 1991] BDRip 720p, Mvo

salma3

1 | 0

13.83 ГБ

В этой теме нет новых непрочитанных сообщений. Command & Conquer: Red Alert 3 [3D,  Strategy, 2008] [RePack]

vitalikmd

0 | 0

6.38 ГБ

В этой теме нет новых непрочитанных сообщений. [ChicasLoca.com / PornDoePremium.com] Boni Brown - RIDE AND CONQUER (27.08.2018, Blowjob, All Sex, IR, 480p]

salma3

0 | 0

466.03 МБ


Начать новую тему Ответить на тему  [ 1 сообщение ] 




Для Мосгорсуда, Роскомнадзора и рекламодателей:: rstracker[собака]yandex.ru
cron