COVID-19 - Последняя информация о коронавирусе на сайте Минздрава




Торрент файл
скачать торрент магнет ссылка Добавлен: 26 дек 2011, 00:13
Размер: 612.25 МБ
Сидеров: 5
Личеров: 8
Автор

СообщениеДобавлено: 26 дек 2011, 00:13 

Не в сети
Супермодератор
Аватара пользователя
Дата регистрации:
22 май 2010, 11:03
Возраст: 36
Спасибо: 7931 / 13
Сообщения: 49828
Вторая Мировая - Битва за Британию (Фильм 8.) / The Battle Of Britain


Перевод: Профессиональный (одноголосый), cубтитры: отсутствуют
Формат: DVDRip, AVI, DivX, MP3
Страна: США
Режиссер: Фрэнк Капра, Энтони Вейллер
Жанр: документальный
Продолжительность: 00:52:34
Год выпуска: 1943

Описание: «Битва за Британию» — это ода храбрости и самопожертвованию британского народа перед лицом постоянных бомбардировок войск Гитлера, рассказанная дважды контуженным во время войны пилотом Дугласом Бадером. В 1940 году Британия была единственной европейской страной, не сдавшейся в руки врага. В конце, британские пилоты готовят наступление, чтобы отразить натиск войск фашистской Германии.



Видео: 720x480 (1.50:1), 29.970 fps, DivX Codec 5.x or 6.x ~1456 kbps avg, 0.14 bit/pixel
Аудио: 44.100 kHz, MPEG Layer 3, 2 ch, ~160.00 kbps avg

Доп. информация:
Фильм 1 "Атака в Тихом океане"
Фильм 2 "Битва за Новую Британию"
Фильм 3 "Направление Токио"
Фильм 4 "Битва за Россию"
Фильм 5 "Прелюдия к войне"
Фильм 6 "Разделить и победить"
Фильм 7 "Нападение нацистов"

General
Complete name: E:\torrents\bitva_za_britaniju_[tfile.ru].avi
Format: AVI
Format/Info: Audio Video Interleave
File size: 612 MiB
Duration: 52mn 34s
Overall bit rate: 1 628 Kbps
Writing library: Boilsoft Joiner build 2411/release

Video
ID: 0
Format: MPEG-4 Visual
Format profile: Simple@L1
Format settings, BVOP: No
Format settings, QPel: No
Format settings, GMC: No warppoints
Format settings, Matrix: Default (H.263)
Codec ID: DX50
Codec ID/Hint: DivX 5
Duration: 52mn 34s
Bit rate: 1 456 Kbps
Width: 720 pixels
Height: 480 pixels
Display aspect ratio: 3:2
Frame rate: 29.970 fps
Standard: NTSC
Color space: YUV
Chroma subsampling: 4:2:0
Bit depth: 8 bits
Scan type: Interlaced
Scan order: Top Field First
Compression mode: Lossy
Bits/(Pixel*Frame): 0.141
Stream size: 548 MiB (89%)
Writing library: Lavc51.44.0

Audio
ID: 1
Format: MPEG Audio
Format version: Version 1
Format profile: Layer 3
Mode: Joint stereo
Mode extension: MS Stereo
Codec ID: 55
Codec ID/Hint: MP3
Duration: 52mn 34s
Bit rate mode: Constant
Bit rate: 160 Kbps
Channel(s): 2 channels
Sampling rate: 44.1 KHz
Compression mode: Lossy
Stream size: 60.2 MiB (10%)
Alignment: Split accross interleaves
Interleave, duration: 33 ms (1.00 video frame)
Interleave, preload duration: 500 ms








Поделиться:



Скачать книги и аудио книги через торрент


Вернуться к началу
 Профиль Отправить личное сообщение  
 
   Похожие торренты   Автор   Торрент   Размер 
В этой теме нет новых непрочитанных сообщений. Вторая жизнь / Deuxième vie [комедия, фэнтези, 2000] DVDRip, Mvo

salma3

0 | 2

1.89 ГБ

В этой теме нет новых непрочитанных сообщений. Elegant Angel - Битва задниц 4 / Battle of the Asses 4 (2012) DVDRip

zorgi

0 | 3

1.37 ГБ

В этой теме нет новых непрочитанных сообщений. Вторая первая любовь [01-04 из 04] [Детектив, мелодрама, 2018] WEB-DL 1080p

salma3

0 | 0

6.24 ГБ

В этой теме нет новых непрочитанных сообщений. ЧУМА! Вторая волна / Plague! (Сезон 1-2 , Серия 1-14 из 14 ) ( Андрей Богатырёв) [2020, Комедия , WEB-DLRip - HEVC - 1080p]

Враг Нароода

2 | 1

8.08 ГБ

В этой теме нет новых непрочитанных сообщений. Битва в Арденнах / Battle of the Bulge [военный, боевик, драма, 1965] BDRip, Mvo

salma3

0 | 0

2.18 ГБ

В этой теме нет новых непрочитанных сообщений. Великая битва / Ansiseong / The Great Battle [боевик, военный, история, 2018] WEBRip, Mvo

salma3

0 | 0

2.18 ГБ

В этой теме нет новых непрочитанных сообщений. Битва на гирляндах / Battle of the Bulbs [комедия, семейный, 2010] WEB-DLRip, Dvo [НТВ+]

salma3

0 | 0

1.45 ГБ


Начать новую тему Ответить на тему  [ 1 сообщение ] 




Для Мосгорсуда, Роскомнадзора и рекламодателей:: rstracker[собака]yandex.ru
cron