COVID-19 - Последняя информация о коронавирусе на сайте Минздрава




Торрент файл
скачать торрент магнет ссылка Добавлен: 26 дек 2011, 00:13
Размер: 700.39 МБ
Сидеров: 7
Личеров: 7
Автор

СообщениеДобавлено: 26 дек 2011, 00:13 

Не в сети
Супермодератор
Аватара пользователя
Дата регистрации:
22 май 2010, 11:03
Возраст: 36
Спасибо: 7931 / 13
Сообщения: 49828
Вторая мировая - Битва за Китай (Фильм 10) / The Battle Of China


Перевод: Профессиональный (одноголосый), cубтитры: отсутствуют
Формат: DVDRip, AVI, DivX, MP3
Страна: США
Режиссер: Фрэнк Капра, Анатоль Литвак
Жанр: документальный
Продолжительность: 01:02:56
Год выпуска: 1944

Описание: В этом великолепном документальном фильме мы увидим рассказ о Китае и его жителях. После небольшого экскурса в историю мы поймем, почему японские войска так хотели завоевать Китай, и почему они были так уверены в своей победе. В конце концов, мы увидим историю войны в этом регионе, а также борьбу жителей страны, которые приложили всю свою изобретательность, чтобы отбиться от японских захватчиков.



Видео: 512x384 (1.33:1), 23.976 fps, DivX Codec 6.8.5/6.9.1 ~1434 kbps avg, 0.30 bit/pixel
Аудио: 48 kHz, MPEG Layer 3, 2 ch, ~107.66 kbps avg

Доп. информация:
Фильм 1 "Атака в Тихом океане"
Фильм 2 "Битва за Новую Британию"
Фильм 3 "Направление Токио"
Фильм 4 "Битва за Россию"
Фильм 5 "Прелюдия к войне"
Фильм 6 "Разделить и победить"
Фильм 7 "Нападение нацистов"
Фильм 8 "Битва за Британию"
Фильм 9 "Победа в Тунисе"

General
Complete name: E:\torrents\bitva_za_kitai_[tfile.ru].avi
Format: AVI
Format/Info: Audio Video Interleave
File size: 700 MiB
Duration: 1h 2mn
Overall bit rate: 1 556 Kbps
Writing application: VirtualDubMod 1.5.4.1 (build 2178/release)
Writing library: VirtualDubMod build 2178/release

Video
ID: 0
Format: MPEG-4 Visual
Format settings, BVOP: 1
Format settings, QPel: No
Format settings, GMC: No warppoints
Format settings, Matrix: Default (H.263)
Muxing mode: Packed bitstream
Codec ID: DX50
Codec ID/Hint: DivX 5
Duration: 1h 2mn
Bit rate: 1 436 Kbps
Width: 512 pixels
Height: 384 pixels
Display aspect ratio: 4:3
Frame rate: 23.976 fps
Color space: YUV
Chroma subsampling: 4:2:0
Bit depth: 8 bits
Scan type: Progressive
Compression mode: Lossy
Bits/(Pixel*Frame): 0.305
Stream size: 646 MiB (92%)
Writing library: DivX 6.8.5 (UTC 2009-08-20)

Audio
ID: 1
Format: MPEG Audio
Format version: Version 1
Format profile: Layer 3
Mode: Joint stereo
Mode extension: MS Stereo
Codec ID: 55
Codec ID/Hint: MP3
Duration: 1h 2mn
Bit rate mode: Variable
Bit rate: 108 Kbps
Channel(s): 2 channels
Sampling rate: 48.0 KHz
Compression mode: Lossy
Stream size: 48.4 MiB (7%)
Alignment: Aligned on interleaves
Interleave, duration: 24 ms (0.58 video frame)
Interleave, preload duration: 552 ms
Language: Russian








Поделиться:



Скачать книги и аудио книги через торрент


Вернуться к началу
 Профиль Отправить личное сообщение  
 
   Похожие торренты   Автор   Торрент   Размер 
В этой теме нет новых непрочитанных сообщений. Воздушная дорога в Китай / High Road to China [Драма, мелодрама, приключения, 1983] BDRip 1080p, Mvo

salma3

0 | 0

7.83 ГБ

В этой теме нет новых непрочитанных сообщений. Вторая жизнь / Deuxième vie [комедия, фэнтези, 2000] DVDRip, Mvo

salma3

0 | 2

1.89 ГБ

В этой теме нет новых непрочитанных сообщений. Снукер. China Championship 2019 / Гуанчжоу, Китай. День 1-4 [23-26.09] (2019) HDTVRip 720p

salma3

0 | 0

15.05 ГБ

В этой теме нет новых непрочитанных сообщений. Снукер. China Championship 2019 / Гуанчжоу, Китай. День 1-5 [23-27.09] (2019) HDTVRip 720p

salma3

0 | 0

19.16 ГБ

В этой теме нет новых непрочитанных сообщений. Elegant Angel - Битва задниц 4 / Battle of the Asses 4 (2012) DVDRip

zorgi

0 | 3

1.37 ГБ

В этой теме нет новых непрочитанных сообщений. Вторая первая любовь [01-04 из 04] [Детектив, мелодрама, 2018] WEB-DL 1080p

salma3

0 | 0

6.24 ГБ

В этой теме нет новых непрочитанных сообщений. ЧУМА! Вторая волна / Plague! (Сезон 1-2 , Серия 1-14 из 14 ) ( Андрей Богатырёв) [2020, Комедия , WEB-DLRip - HEVC - 1080p]

Враг Нароода

2 | 1

8.08 ГБ


Начать новую тему Ответить на тему  [ 1 сообщение ] 




Для Мосгорсуда, Роскомнадзора и рекламодателей:: rstracker[собака]yandex.ru
cron