COVID-19 - Последняя информация о коронавирусе на сайте Минздрава




Торрент файл
скачать торрент магнет ссылка Добавлен: 26 дек 2011, 00:13
Размер: 1.36 ГБ
Сидеров: 0
Личеров: 11
Автор

СообщениеДобавлено: 26 дек 2011, 00:13 

Не в сети
Супермодератор
Аватара пользователя
Дата регистрации:
22 май 2010, 11:03
Возраст: 36
Спасибо: 7931 / 13
Сообщения: 49828
Вторая мировая. К берегам Иво Джимы. Это Гуадалканал / To the Shores of Iwo Jima. This is Guadalcanal


Перевод: Профессиональный (одноголосый), cубтитры: отсутствуют
Формат: DVDRip, AVI, DivX, MP3
Страна: США
Режиссер: Милтон Спелинг
Жанр: документальный
Продолжительность: 00:40:36
Год выпуска: 1945

Описание: К берегам Иво Джимы
Номинированный к награде Академией документальных фильмов как лучший документальный фильм, этот 20-минутная картина, снятая на Technicolor иллюстрирует продолжавшееся почти месяц отчаянное и яростное сражение за вулканический остров Иво Джима, лежащий в 700 милях к юго-востоку от Японии. В ходе этого сражения были убиты почти 20 000 японских и 7 000 американских военнослужащих. Сражение было увековечено фотографией Джо Розенталя на которой пять морских пехотинцев и флотских corpsman поднимают гигантский американский флаг на 550 футовой вершине самой высокой островной горы Сурибачи.
Это Гуадалканал
"Фильм посвящается мужчинам и женщинам работавшим на военных заводах США в благодарность за из вклад во имя победы союзных войск". Фильм посвященный высадке американских войск на Гуадалканал.




Видео: 720x544 (1.32:1), 29.970 fps, DivX Codec 6.8.5/6.9.1 ~4689 kbps avg, 0.40 bit/pixel
Аудио: 48 kHz, MPEG Layer 3, 2 ch, ~102.35 kbps avg

Доп. информация:
Фильм 1 "Атака в Тихом океане"
Фильм 2 "Битва за Новую Британию"
Фильм 3 "Направление Токио"
Фильм 4 "Битва за Россию"
Фильм 5 "Прелюдия к войне"
Фильм 6 "Разделить и победить"
Фильм 7 "Нападение нацистов"
Фильм 8 "Битва за Британию"
Фильм 9 "Победа в Тунисе"
Фильм 10 "Битва за Китай"

General
Complete name: E:\torrents\k_beregam_iwo_jima_[tfile.ru].avi
Format: AVI
Format/Info: Audio Video Interleave
File size: 1.36 GiB
Duration: 40mn 36s
Overall bit rate: 4 806 Kbps
Writing application: VirtualDubMod 1.5.4.1 (build 2178/release)
Writing library: VirtualDubMod build 2178/release

Video
ID: 0
Format: MPEG-4 Visual
Format settings, BVOP: 1
Format settings, QPel: No
Format settings, GMC: No warppoints
Format settings, Matrix: Default (H.263)
Muxing mode: Packed bitstream
Codec ID: DX50
Codec ID/Hint: DivX 5
Duration: 40mn 36s
Bit rate: 4 690 Kbps
Width: 720 pixels
Height: 544 pixels
Display aspect ratio: 4:3
Frame rate: 29.970 fps
Color space: YUV
Chroma subsampling: 4:2:0
Bit depth: 8 bits
Scan type: Progressive
Compression mode: Lossy
Bits/(Pixel*Frame): 0.400
Stream size: 1.33 GiB (98%)
Writing library: DivX 6.8.5 (UTC 2009-08-20)

Audio
ID: 1
Format: MPEG Audio
Format version: Version 1
Format profile: Layer 3
Mode: Joint stereo
Mode extension: MS Stereo
Codec ID: 55
Codec ID/Hint: MP3
Duration: 40mn 36s
Bit rate mode: Variable
Bit rate: 102 Kbps
Channel(s): 2 channels
Sampling rate: 48.0 KHz
Compression mode: Lossy
Stream size: 29.7 MiB (2%)
Alignment: Aligned on interleaves
Interleave, duration: 24 ms (0.72 video frame)
Interleave, preload duration: 525 ms
Language: Russian








Поделиться:



Скачать книги и аудио книги через торрент


Вернуться к началу
 Профиль Отправить личное сообщение  
 
   Похожие торренты   Автор   Торрент   Размер 
В этой теме нет новых непрочитанных сообщений. Вторая жизнь / Deuxième vie [комедия, фэнтези, 2000] DVDRip, Mvo

salma3

0 | 2

1.89 ГБ

В этой теме нет новых непрочитанных сообщений. Вторая первая любовь [01-04 из 04] [Детектив, мелодрама, 2018] WEB-DL 1080p

salma3

0 | 0

6.24 ГБ

В этой теме нет новых непрочитанных сообщений. ЧУМА! Вторая волна / Plague! (Сезон 1-2 , Серия 1-14 из 14 ) ( Андрей Богатырёв) [2020, Комедия , WEB-DLRip - HEVC - 1080p]

Враг Нароода

2 | 1

8.08 ГБ

В этой теме нет новых непрочитанных сообщений. Возвращение на Батаан / Back to Bataan [драма, военный, 1945] WEB-DLRip, Mvo

salma3

0 | 0

1.45 ГБ

В этой теме нет новых непрочитанных сообщений. Война на крышах / Rooftops [драма, боевик, 1989] DVDRip, Avo

salma3

0 | 0

1.45 ГБ

В этой теме нет новых непрочитанных сообщений. Домашняя война / Morgan Stewart's Coming Home [комедия, 1987] DVDRip, Avo

salma3

0 | 1

1.45 ГБ

В этой теме нет новых непрочитанных сообщений. Война полиций / La guerre des polices [драма, криминал, 1979] DVDRip-AVC, Mvo

salma3

0 | 0

1.74 ГБ


Начать новую тему Ответить на тему  [ 1 сообщение ] 




Для Мосгорсуда, Роскомнадзора и рекламодателей:: rstracker[собака]yandex.ru
cron