COVID-19 - Последняя информация о коронавирусе на сайте Минздрава




Торрент файл
скачать торрент магнет ссылка Добавлен: 25 дек 2011, 23:56
Размер: 500.03 МБ
Сидеров: 20
Личеров: 9
Автор

СообщениеДобавлено: 25 дек 2011, 23:56 

Не в сети
Супермодератор
Аватара пользователя
Дата регистрации:
22 май 2010, 11:03
Возраст: 36
Спасибо: 7931 / 13
Сообщения: 49828
Атака в Тихом океане / Attack In The Pacific


Перевод: Профессиональный (одноголосый), cубтитры: отсутствуют
Формат: DVDRip, AVI, XviD, MP3
Страна: США
Режиссер: Дэвид Раксин
Жанр: документальный
Продолжительность: 0:51:59
Год выпуска: 1944

Описание: После великолепного вступления о различных островах Тихого океана и их жителях, это документальное кино рассказывает нам о становлении японских военных сил от самого начала их операций в Австралии, до атаки военного порта Перл Харбор. Мы видим методы, использованные Союзными Войсками, в особенности силами США, которые были готовы отразить нападение Японии. Также в фильме есть кадры об ужасных наступлениях на острова, после которых было даже трудно вести подсчеты убитых.



Видео: 592x448 (1.32:1), 23.976 fps, XviD 1.2 beta 1 (build 43) ~1225 kbps avg, 0.19 bit/pixel
Аудио: 44.100 kHz, MPEG Layer 3, 2 ch, ~112.00 kbps avg

General
Complete name: E:\torrents\ataka_v_tihom_okeane_[tfile.ru].avi
Format: AVI
Format/Info: Audio Video Interleave
File size: 500 MiB
Duration: 51mn 59s
Overall bit rate: 1 345 Kbps
Writing application: VirtualDubMod 1.5.4.1 (build 2178/release)
Writing library: VirtualDubMod build 2178/release

Video
ID: 0
Format: MPEG-4 Visual
Format profile: Advanced Simple@L5
Format settings, BVOP: 1
Format settings, QPel: No
Format settings, GMC: No warppoints
Format settings, Matrix: Custom
Codec ID: XVID
Codec ID/Hint: XviD
Duration: 51mn 59s
Bit rate: 1 226 Kbps
Width: 592 pixels
Height: 448 pixels
Display aspect ratio: 4:3
Frame rate: 23.976 fps
Color space: YUV
Chroma subsampling: 4:2:0
Bit depth: 8 bits
Scan type: Progressive
Compression mode: Lossy
Bits/(Pixel*Frame): 0.193
Stream size: 456 MiB (91%)
Writing library: XviD 1.2.0SMP (UTC 2006-01-0

Audio
ID: 1
Format: MPEG Audio
Format version: Version 1
Format profile: Layer 3
Mode: Joint stereo
Mode extension: MS Stereo
Codec ID: 55
Codec ID/Hint: MP3
Duration: 51mn 59s
Bit rate mode: Constant
Bit rate: 112 Kbps
Channel(s): 2 channels
Sampling rate: 44.1 KHz
Compression mode: Lossy
Stream size: 41.6 MiB (8%)
Alignment: Split accross interleaves
Interleave, duration: 83 ms (2.00 video frames)
Interleave, preload duration: 500 ms
Writing library: LAME3.97b
Encoding settings: -m j -V 4 -q 2 -lowpass 15.6 -b 112








Поделиться:



Скачать книги и аудио книги через торрент


Вернуться к началу
 Профиль Отправить личное сообщение  
 
   Похожие торренты   Автор   Торрент   Размер 
В этой теме нет новых непрочитанных сообщений. Атмосфера инцеста / Incest'air (Pacific Entertainment) [1996 г., DVDRip]

SpyMan

0 | 0

618.1 МБ

В этой теме нет новых непрочитанных сообщений. Вой 6: Уроды Харкера. Последняя атака / Howling VI: The Freaks [ужасы, драма, комедия, 1991] DVDRip, Аvo

salma3

0 | 0

1.37 ГБ

В этой теме нет новых непрочитанных сообщений. В тихом омуте / I See You [Ужасы, триллер, криминал, 2019] WEB-DLRip, Dub [iTunes]

salma3

208 | 16

1.46 ГБ

В этой теме нет новых непрочитанных сообщений. В тихом омуте / I See You [Ужасы, триллер, криминал, 2019] WEB-DLRip-AVC, Dub [iTunes]

salma3

82 | 6

1.57 ГБ

В этой теме нет новых непрочитанных сообщений. В тихом омуте / I See You [Ужасы, триллер, криминал, 2019] WEB-DLRip-AVC, Dub [iTunes]

salma3

0 | 0

1.9 ГБ

В этой теме нет новых непрочитанных сообщений. Nat Geo Wild: Глубоко в океане / Hunt for the Giant Squid (2019) HDTVRip | P1

salma3

0 | 0

630.05 МБ

В этой теме нет новых непрочитанных сообщений. Nat Geo Wild: Глубоко в океане / Hunt for the Giant Squid (2019) HDTV 1080i | P1

salma3

0 | 0

2.4 ГБ


Начать новую тему Ответить на тему  [ 1 сообщение ] 




Для Мосгорсуда, Роскомнадзора и рекламодателей:: rstracker[собака]yandex.ru
cron