COVID-19 - Последняя информация о коронавирусе на сайте Минздрава




Торрент файл
скачать торрент магнет ссылка Добавлен: 25 дек 2011, 23:55
Размер: 1.07 ГБ
Сидеров: 10
Личеров: 10
Автор

СообщениеДобавлено: 25 дек 2011, 23:55 

Не в сети
Супермодератор
Аватара пользователя
Дата регистрации:
22 май 2010, 11:03
Возраст: 36
Спасибо: 7931 / 13
Сообщения: 49828
Подземелья Рейха [2 Серии из 2] / The Reich Underground


Перевод: Профессиональный (одноголосый), cубтитры: отсутствуют
Формат: TVRip, AVI, DivX, MP3
Страна: Германия
Режиссер: Пауль Бригхвель
Жанр: документальный
Продолжительность: 01:34:14
Год выпуска: 2004

Описание: В конце Второй мировой войны по всей Германии победители обнаружили огромные недостроенные системы туннелей. Гитлер распорядился о сооружении около 800 подземных комплексов в попытке удержать на плаву немецкую военную промышленность. Неуязвимые для бомбардировок подземные заводы Третьего рейха - один из самых масштабных проектов в истории человечества. Гигантские подземные заводы предназначались для непрерывного снабжения Германии новыми видами вооружения. 60 лет назад союзники пытались уничтожить их, в том числе, и личный альпийский бункер Гитлера. Целые участки системы туннелей до сих пор остаются не исследованными.

Видео: 704x528 (1.33:1), 25 fps, DivX Codec 6.8.5/6.9.1 ~1492 kbps avg, 0.16 bit/pixel
Аудио: 48 kHz, MPEG Layer 3, 2 ch, ~128.00 kbps avg
(технические данные всех серий идентичны)

General
Complete name: E:\torrents\podzemeliya_reyha_[tfile.ru]\podzemeliya_reyha_1_ugroza_snizu_[tfile.ru].avi
Format: AVI
Format/Info: Audio Video Interleave
File size: 551 MiB
Duration: 47mn 14s
Overall bit rate: 1 631 Kbps
Writing library: VirtualDub build 29808/release

Video
ID: 0
Format: MPEG-4 Visual
Format settings, BVOP: 1
Format settings, QPel: No
Format settings, GMC: No warppoints
Format settings, Matrix: Default (H.263)
Muxing mode: Packed bitstream
Codec ID: DX50
Codec ID/Hint: DivX 5
Duration: 47mn 14s
Bit rate: 1 493 Kbps
Width: 704 pixels
Height: 528 pixels
Display aspect ratio: 4:3
Frame rate: 25.000 fps
Color space: YUV
Chroma subsampling: 4:2:0
Bit depth: 8 bits
Scan type: Progressive
Compression mode: Lossy
Bits/(Pixel*Frame): 0.161
Stream size: 505 MiB (92%)
Writing library: DivX 6.8.5 (UTC 2009-08-20)

Audio
ID: 1
Format: MPEG Audio
Format version: Version 1
Format profile: Layer 3
Mode: Joint stereo
Mode extension: MS Stereo
Codec ID: 55
Codec ID/Hint: MP3
Duration: 47mn 14s
Bit rate mode: Constant
Bit rate: 128 Kbps
Channel(s): 2 channels
Sampling rate: 48.0 KHz
Compression mode: Lossy
Stream size: 43.3 MiB (8%)
Alignment: Split accross interleaves
Interleave, duration: 40 ms (1.00 video frame)
Interleave, preload duration: 500 ms

Фильм 1: Угроза снизу / Terror from below

Продолжительность:00:47:14






Фильм 2: Последний оплот / The last stand

Продолжительность:00:47:00









Поделиться:



Скачать книги и аудио книги через торрент


Вернуться к началу
 Профиль Отправить личное сообщение  
 
   Похожие торренты   Автор   Торрент   Размер 
В этой теме нет новых непрочитанных сообщений. Ужас подземелья / Cellar Dweller [ужасы, фэнтези, 1988] BDRip, Avo

salma3

0 | 0

1.46 ГБ

В этой теме нет новых непрочитанных сообщений. Проклятие Лауры: Завещание / Звонок из подземелья / The Call [Ужасы, 2020] BDRip, Dub [iTunes]

salma3

11 | 9

1.42 ГБ

В этой теме нет новых непрочитанных сообщений. Кукловод: Самый маленький рейх / Puppet Master: The Littlest Reich [Ужасы, комедия, 2018] HDRip, Mvo [HDRezka Studio]

OLEG270877

10 | 2

1.46 ГБ

В этой теме нет новых непрочитанных сообщений. Кукловод: Самый маленький рейх / Puppet Master: The Littlest Reich [Ужасы, комедия, 2018] BDRip 1080p, Mvo [HDRezka Studio]

OLEG270877

10 | 3

5.41 ГБ

В этой теме нет новых непрочитанных сообщений. Золото Третьего Рейха / Золото Дьявола / The Devil's Keep [Триллер, Боевик, Приключения, 1995] VHSRip, Avo

salma3

0 | 0

1.54 ГБ

В этой теме нет новых непрочитанных сообщений. Тайная страсть / Pasion de Gavilanes [S01] [Драма, мелодрама, 2003-2004] TVRip, Mvo

salma3

1 | 1

82.76 ГБ

В этой теме нет новых непрочитанных сообщений. Шестеро вне закона / 6 Underground [боевик, триллер, 2019] WEB-DL 1080p, Dub [Пифагор]

salma3

3425 | 514

7.9 ГБ


Начать новую тему Ответить на тему  [ 1 сообщение ] 




Для Мосгорсуда, Роскомнадзора и рекламодателей:: rstracker[собака]yandex.ru
cron