COVID-19 - Последняя информация о коронавирусе на сайте Минздрава




Торрент файл
скачать торрент магнет ссылка Добавлен: 25 дек 2011, 23:54
Размер: 533.16 МБ
Сидеров: 11
Личеров: 7
Автор

СообщениеДобавлено: 25 дек 2011, 23:54 

Не в сети
Супермодератор
Аватара пользователя
Дата регистрации:
22 май 2010, 11:03
Возраст: 36
Спасибо: 7931 / 13
Сообщения: 49828
Оборона Трубчевска


Перевод: Не требуется, cубтитры: отсутствуют
Формат: DVDRip, AVI, H.263, MP3
Страна: Россия
Режиссер: Геннадий Соболев
Жанр: документальный
Продолжительность: 0:55:38
Год выпуска: 2011

Описание: Фильм рассказывает о событиях 20 августа - 22 октября 1941 г. у Трубчевска, его обороне войсками Брянского фронта, открывает малоизученные и малоизвестные факты противостояния Красной армии фашистской операции "Интермеццо".
В основе фильма - подленные карты боевых действий, донесения Брянского фронта, дневники немецких и советских генералов и другие документы того времени.


Видео: 720x576 (1.25:1), 25 fps, MPEG-4 Visual (H.263), Simple@L1, ~1199 kbps avg, 0.116 bit/pixel
Аудио: 44.100 kHz, MPEG Layer 3, 2 ch, ~128.00 kbps avg

General
Complete name: E:\torrents\oborona_trubchevska_[tfile.ru].avi
Format: AVI
Format/Info: Audio Video Interleave
File size: 533 MiB
Duration: 55mn 38s
Overall bit rate: 1 340 Kbps
Writing application: Lavf51.12.1

Video
ID: 0
Format: MPEG-4 Visual
Format profile: Simple@L1
Format settings, BVOP: No
Format settings, QPel: No
Format settings, GMC: No warppoints
Format settings, Matrix: Default (H.263)
Codec ID: FMP4
Duration: 55mn 38s
Bit rate: 1 199 Kbps
Width: 720 pixels
Height: 576 pixels
Display aspect ratio: 5:4
Frame rate: 25.000 fps
Standard: PAL
Color space: YUV
Chroma subsampling: 4:2:0
Bit depth: 8 bits
Scan type: Progressive
Compression mode: Lossy
Bits/(Pixel*Frame): 0.116
Stream size: 477 MiB (90%)
Writing library: Lavc51.40.4

Audio
ID: 1
Format: MPEG Audio
Format version: Version 1
Format profile: Layer 3
Mode: Joint stereo
Mode extension: MS Stereo
Codec ID: 55
Codec ID/Hint: MP3
Duration: 55mn 38s
Bit rate mode: Constant
Bit rate: 128 Kbps
Channel(s): 2 channels
Sampling rate: 44.1 KHz
Compression mode: Lossy
Stream size: 50.9 MiB (10%)
Alignment: Aligned on interleaves
Interleave, duration: 26 ms (0.65 video frame)








Поделиться:



Скачать книги и аудио книги через торрент


Вернуться к началу
 Профиль Отправить личное сообщение  
 
   Похожие торренты   Автор   Торрент   Размер 
В этой теме нет новых непрочитанных сообщений. Вторая жизнь / Deuxième vie [комедия, фэнтези, 2000] DVDRip, Mvo

salma3

0 | 2

1.89 ГБ

В этой теме нет новых непрочитанных сообщений. Война на крышах / Rooftops [драма, боевик, 1989] DVDRip, Avo

salma3

0 | 0

1.45 ГБ

В этой теме нет новых непрочитанных сообщений. Домашняя война / Morgan Stewart's Coming Home [комедия, 1987] DVDRip, Avo

salma3

0 | 1

1.45 ГБ

В этой теме нет новых непрочитанных сообщений. Война полиций / La guerre des polices [драма, криминал, 1979] DVDRip-AVC, Mvo

salma3

0 | 0

1.74 ГБ

В этой теме нет новых непрочитанных сообщений. Волк / Wolf (Сезон 1, Серия 1-14 из 14 ) (Геннадий Островский) [2020, Детектив, драма, исторический, приключения, экранизация , WEB-DLRip - HEVC - 1080p]

Враг Нароода

0 | 0

18.78 ГБ

В этой теме нет новых непрочитанных сообщений. Вторая первая любовь [01-04 из 04] [Детектив, мелодрама, 2018] WEB-DL 1080p

salma3

0 | 0

6.24 ГБ

В этой теме нет новых непрочитанных сообщений. ЧУМА! Вторая волна / Plague! (Сезон 1-2 , Серия 1-14 из 14 ) ( Андрей Богатырёв) [2020, Комедия , WEB-DLRip - HEVC - 1080p]

Враг Нароода

2 | 1

8.08 ГБ


Начать новую тему Ответить на тему  [ 1 сообщение ] 




Для Мосгорсуда, Роскомнадзора и рекламодателей:: rstracker[собака]yandex.ru
cron