COVID-19 - Последняя информация о коронавирусе на сайте Минздрава




Торрент файл
скачать торрент магнет ссылка Добавлен: 20 мар 2018, 16:34
Размер: 509.9 МБ
Сидеров: 0
Личеров: 0
Автор

СообщениеДобавлено: 20 мар 2018, 16:34 

Не в сети
Супермодератор
Аватара пользователя
Дата регистрации:
15 фев 2012, 16:44
Возраст: 31
Спасибо: 8297 / 2148
Сообщения: 96939
Катюша. Голос Победы


Перевод: Не требуется, cубтитры: отсутствуют
Формат: DVB, MPEG-TS, H.264, MP2
Страна: Республика Беларусь
Режиссер: Юлия Гончар
Жанр: документальный
Продолжительность: 00:26:49
Год выпуска: 2014

Описание: 70-летию Великой Победы посвящается.
Фильм о судьбе самого грозного оружия Великой Отечественной войны снятый белорусскими журналистами. Уникальные кадры кинохроники, воспоминания ветеранов ВОВ, комментарии специалистов - всем этим наполнен фильм-повествование о уникальном оружие Победы.


Видео: 720(785)x576 (4:3), 25,000 fps, AVC (х264), Main@L3, 2268 Кбит/сек, ~ 0.219 bit/pixel
Аудио: 48 kHz, MPEG Layer 2, 2 ch, ~256.00 kbps avg

General
ID : 1 (0x1)
Complete name : D:\Новая земля 2\001 Документальный фильмы\ВОВ и другие войны\Катюша. Голос Победы (2014)\Катюша. Голос Победы (2014).ts
Format : MPEG-TS
File size : 510 MiB
Duration : 26 min
Overall bit rate mode : Variable
Overall bit rate : 2 658 kb/s

Video
ID : 513 (0x201)
Menu ID : 1 (0x1)
Format : AVC
Format/Info : Advanced Video Codec
Format profile : Main@L3
Format settings, CABAC : Yes
Format settings, ReFrames : 4 frames
Codec ID : 27
Duration : 26 min
Bit rate : 2 268 kb/s
Width : 720 pixels
Height : 576 pixels
Display aspect ratio : 4:3
Frame rate : 25.000 FPS
Standard : PAL
Color space : YUV
Chroma subsampling : 4:2:0
Bit depth : 8 bits
Scan type : MBAFF
Scan type, store method : Interleaved fields
Scan order : Top Field First
Bits/(Pixel*Frame) : 0.219
Stream size : 435 MiB (85%)
Color range : Limited
Color primaries : BT.601 PAL
Transfer characteristics : BT.470 System B, BT.470 System G
Matrix coefficients : BT.601

Audio
ID : 514 (0x202)
Menu ID : 1 (0x1)
Format : MPEG Audio
Format version : Version 1
Format profile : Layer 2
Codec ID : 3
Duration : 26 min
Bit rate mode : Constant
Bit rate : 256 kb/s
Channel(s) : 2 channels
Sampling rate : 48.0 kHz
Compression mode : Lossy
Stream size : 49.1 MiB (10%)
Language : English








_________________
Проголосуй за трекер Открытый торрент трекер - RUS-MEDIA.ORG

Проголосуй Открытый торрент трекер - RUS-MEDIA.ORG


Скачать книги и аудио книги через торрент


Вернуться к началу
 Профиль Отправить личное сообщение  
 
   Похожие торренты   Автор   Торрент   Размер 
В этой теме нет новых непрочитанных сообщений. Голос из прошлого [01-04 из 04] [Мелодрама, 2017] DVB

salma3

0 | 0

4.76 ГБ

В этой теме нет новых непрочитанных сообщений. National Geographic: Неизвестная планета Земля / One Strange Rock [S01] [Документальный, научно-популярный, 2018] DVB , Mvo

NTL

0 | 0

9.04 ГБ

В этой теме нет новых непрочитанных сообщений. Голос ангела [01-04 из 04] [Мелодрама, 2019] SATRip-AVC

salma3

0 | 0

2.49 ГБ

В этой теме нет новых непрочитанных сообщений. Голос монстра / A Monster Calls (2016) BDRip | Лицензия

NTL

1 | 0

1.46 ГБ

В этой теме нет новых непрочитанных сообщений. Юлия Алейникова - Медальон Великой княжны (2018) FB2

salma3

0 | 0

921.68 КБ

В этой теме нет новых непрочитанных сообщений. Семьяниң [комедия, 2019] DVB

K15

0 | 0

1.08 ГБ

В этой теме нет новых непрочитанных сообщений. Неродная [01-04 из 04] [Мелодрама, 2018] DVB

salma3

0 | 0

5.19 ГБ


Начать новую тему Ответить на тему  [ 1 сообщение ] 




Для Мосгорсуда, Роскомнадзора и рекламодателей:: rstracker[собака]yandex.ru
cron