COVID-19 - Последняя информация о коронавирусе на сайте Минздрава




Торрент файл
скачать торрент магнет ссылка Добавлен: 20 мар 2018, 16:34
Размер: 703.31 МБ
Сидеров: 0
Личеров: 0
Автор

СообщениеДобавлено: 20 мар 2018, 16:34 

Не в сети
Супермодератор
Аватара пользователя
Дата регистрации:
15 фев 2012, 16:44
Возраст: 31
Спасибо: 8297 / 2148
Сообщения: 96939
Черный ворон


Перевод: Не требуется, cубтитры: отсутствуют
Формат: DVB, MPEG-TS, H.264, MP2
Страна: Республика Беларусь
Режиссер: Анатолий Алай
Жанр: документальный
Продолжительность: 00:39:00
Год выпуска: 2017

Описание: Тема военнопленных Второй мировой войны – одна из основных в творчестве кинорежиссера Анатолия Алая. И это не случайно, ведь военнопленным был и его отец, военврач Иван Алексеевич Алай, пропавший без вести в первые дни войны под Белостоком. Всю жизнь сын искал отца. Наконец, появилась определенность, надежда раскрыть судьбу отца: его имя значится в архивах немецкого объединения «Саксонские мемориалы». Фильм-расследование ставит все точки над “і” в этой истории длинною в жизнь.

Видео: 720(785)x576 (4:3), 25,000 fps, AVC (х264), Main@L3, 2168 Кбит/сек, ~ 0.206 bit/pixel
Аудио: 48 kHz, MPEG Layer 2, 2 ch, ~256.00 kbps avg

General
ID : 1 (0x1)
Complete name : D:\Новая земля 2\001 Документальный фильмы\ВОВ и другие войны\Черный ворон (2017)\Черный ворон (2017).ts
Format : MPEG-TS
File size : 703 MiB
Duration : 39 min
Overall bit rate mode : Variable
Overall bit rate : 2 521 kb/s

Video
ID : 801 (0x321)
Menu ID : 1 (0x1)
Format : AVC
Format/Info : Advanced Video Codec
Format profile : Main@L3
Format settings, CABAC : Yes
Format settings, ReFrames : 4 frames
Format settings, GOP : M=4, N=24
Codec ID : 27
Duration : 38 min
Bit rate : 2 138 kb/s
Width : 720 pixels
Height : 576 pixels
Display aspect ratio : 4:3
Frame rate : 25.000 FPS
Standard : PAL
Color space : YUV
Chroma subsampling : 4:2:0
Bit depth : 8 bits
Scan type : MBAFF
Scan type, store method : Interleaved fields
Scan order : Top Field First
Bits/(Pixel*Frame) : 0.206
Stream size : 596 MiB (85%)
Color range : Limited
Color primaries : BT.601 PAL
Transfer characteristics : BT.470 System B, BT.470 System G
Matrix coefficients : BT.601

Audio
ID : 802 (0x322)
Menu ID : 1 (0x1)
Format : MPEG Audio
Format version : Version 1
Format profile : Layer 2
Codec ID : 3
Duration : 38 min
Bit rate mode : Constant
Bit rate : 256 kb/s
Channel(s) : 2 channels
Sampling rate : 48.0 kHz
Compression mode : Lossy
Stream size : 71.4 MiB (10%)
Language : English








_________________
Проголосуй за трекер Открытый торрент трекер - RUS-MEDIA.ORG

Проголосуй Открытый торрент трекер - RUS-MEDIA.ORG


Скачать книги и аудио книги через торрент


Вернуться к началу
 Профиль Отправить личное сообщение  
 
   Похожие торренты   Автор   Торрент   Размер 
В этой теме нет новых непрочитанных сообщений. National Geographic: Неизвестная планета Земля / One Strange Rock [S01] [Документальный, научно-популярный, 2018] DVB , Mvo

NTL

0 | 0

9.04 ГБ

В этой теме нет новых непрочитанных сообщений. Голос из прошлого [01-04 из 04] [Мелодрама, 2017] DVB

salma3

0 | 0

4.76 ГБ

В этой теме нет новых непрочитанных сообщений. Сдаётся домик у моря [01-20 из 20] [Комедия, 2017-2018] DVB

salma3

0 | 0

19.83 ГБ

В этой теме нет новых непрочитанных сообщений. Ворон / The Raven [Триллер, детектив, 2012] BDRip 1080p, Dub

salma3

0 | 0

8.93 ГБ

В этой теме нет новых непрочитанных сообщений. Ворон / The Raven [Триллер, детектив, 2012] BDRip 720p, Dub

salma3

0 | 0

5.39 ГБ

В этой теме нет новых непрочитанных сообщений. Убийца ворон / A Murder of Crows [Триллер, 1998] WEB-DLRip 720p, Mvo

salma3

1 | 0

3.99 ГБ

В этой теме нет новых непрочитанных сообщений. Нуреев. Белый ворон / The White Crow [Драма, биография, 2019] BDRip [Лицензия]

salma3

0 | 0

2.18 ГБ


Начать новую тему Ответить на тему  [ 1 сообщение ] 




Для Мосгорсуда, Роскомнадзора и рекламодателей:: rstracker[собака]yandex.ru
cron