COVID-19 - Последняя информация о коронавирусе на сайте Минздрава




Торрент файл
скачать торрент магнет ссылка Добавлен: 15 апр 2015, 23:19
Размер: 148.99 МБ
Сидеров: 148
Личеров: 10
Автор

СообщениеДобавлено: 15 апр 2015, 23:19 

Не в сети
Супермодератор
Аватара пользователя
Дата регистрации:
06 июн 2014, 07:51
Спасибо: 639 / 0
Сообщения: 1995

Страна: СССР
Производство: ЦСДФ
Жанр: документальный, короткометражка, военный
Год выпуска: 1944
Продолжительность: 00:09:45
Перевод: Не требуется
Cубтитры: нет
Оригинальная аудиодорожка: русский
Режиссер: Ирина Венжер

Описание:
17 июля 1944 года 57 тысяч немецких военнопленных солдат и офицеров колонной прошли по улицам Москвы. Девятнадцать генералов во главе колонны вели свое поверженное войско. Они прошли по Москве, в которую надеялись войти победителями, мимо людей, которых должны были уничтожить.



Источник: DVB
Качество видео: SATRip
Формат видео: AVI

Видео: 704x528 (4:3), 25 fps, XviD ~ 1934 kbps avg, 0.208 bit/pixel
Аудио: 48 kHz, Dolby Digital AC3 2.0, 192 kbps

Общее
Полное имя : Prokonvoirovanie.nemcev.cherez.Moskvu.1944.SATRip_[New-team]_by_AVP_Studio.avi
Формат : AVI
Формат/Информация : Audio Video Interleave
Размер файла : 149 Мбайт
Продолжительность : 9 м. 45 с.
Общий поток : 2136 Кбит/сек
Программа кодирования : VirtualDubModRus 1.5.10.2 (build 2542/release)
Библиотека кодирования : VirtualDubMod build 2542/release

Видео
Идентификатор : 0
Формат : MPEG-4 Visual
Профиль формата : Advanced Simple@L5
Параметр BVOP формата : 1
Параметр QPel формата : Нет
Параметр GMC формата : Без точки перехода
Параметр матрицы формата : Выборочная
Идентификатор кодека : XVID
Идентификатор кодека/Подсказка : XviD
Продолжительность : 9 м. 45 с.
Битрейт : 1934 Кбит/сек
Ширина : 704 пикселя
Высота : 528 пикселей
Соотношение сторон : 4:3
Частота кадров : 25,000 кадров/сек
Цветовое пространство : YUV
Субдискретизация насыщенности : 4:2:0
Битовая глубина : 8 бит
Тип развёртки : Прогрессивная
Метод сжатия : С потерями
Бит/(Пиксели*Кадры) : 0.208
Размер потока : 135 Мбайт (91%)
Библиотека кодирования : XviD 73

Аудио
Идентификатор : 1
Формат : AC-3
Формат/Информация : Audio Coding 3
Расширение режима : CM (complete main)
Параметр Endianness формата : Big
Идентификатор кодека : 2000
Продолжительность : 9 м. 45 с.
Вид битрейта : Постоянный
Битрейт : 192 Кбит/сек
Каналы : 2 канала
Расположение каналов : Front: L R
Частота : 48,0 КГц
Битовая глубина : 16 бит
Метод сжатия : С потерями
Размер потока : 13,4 Мбайт (9%)
Выравнивание : Разделение по промежуткам
Продолжительность промежутка : 40 мс. (1,00 видеокадр)
Время предзагрузки промежутка : 500 мс



Скачать книги и аудио книги через торрент


Вернуться к началу
 Профиль Отправить личное сообщение  
 
   Похожие торренты   Автор   Торрент   Размер 
В этой теме нет новых непрочитанных сообщений. Приключение мальгаче / Aventure malgache [короткометражка, военный, 1944] BDRip 1080p, Mvo

salma3

0 | 0

2.23 ГБ

В этой теме нет новых непрочитанных сообщений. Возвращение вампира / The Return of the Vampire [Ужасы, драма, вампиры, 1944] WEB-DL 1080p, Mvo

salma3

0 | 0

7.26 ГБ

В этой теме нет новых непрочитанных сообщений. Ирина любит (2018) CamRip

Dievas

181 | 58

107.71 МБ

В этой теме нет новых непрочитанных сообщений. Сошедшие с небес [Военный, Драма, Мелодрама, 1986] SATRip-AVC

salma3

0 | 0

1.24 ГБ

В этой теме нет новых непрочитанных сообщений. Неизвестная планета : Шаманы и шаманизм [Документальный, научно-популярный, 2005] SATRip

NTL

0 | 0

680.84 МБ

В этой теме нет новых непрочитанных сообщений. Окаянные дни / Cursed days (Сезон 1 , Серия 1--10 из 10) (Андрей Болтенко, Ирина Вилкова) [2020, Комедия,WEB-DLRip - HEVC 10bit 1080p]

Враг Нароода

0 | 0

3.98 ГБ

В этой теме нет новых непрочитанных сообщений. Маша и медведь: Вот как бывает [74] [Мультфильм, короткометражка, комедия, семейный, 2018] WEBRip 1080p

salma3

0 | 0

194.49 МБ


Начать новую тему Ответить на тему  [ 1 сообщение ] 




Для Мосгорсуда, Роскомнадзора и рекламодателей:: rstracker[собака]yandex.ru
cron