COVID-19 - Последняя информация о коронавирусе на сайте Минздрава




Торрент файл
Автор

СообщениеДобавлено: 15 апр 2015, 22:35 

Не в сети
Дата регистрации:
27 апр 2014, 21:05
Спасибо: 11 / 0
Сообщения: 65
Как правильно закопать после расстрела ("Партизаны в степях Украины", 1942)

Перевод: Не требуется, cубтитры: отсутствуют
Формат: WEBRip, AVI, DivX, MP3
Страна: Россия
Режиссер: Алексей Меняйлов
Жанр: военный, подвиг, драма
Продолжительность: 00:49:16
Год выпуска: 2014

Описание: Несведущие полагают, что это просто - расстрелять, а закопать после расстрела - ещё проще. Однако это не так. Интересно, что при расстреле даже предателей советским предписывалось выполнять древние обряды, возраст которых многие тысячи лет...

Видео: 720x576 (1.25:1), 24 fps, Intel ITU H.264 ~1503 kbps avg, 0.15 bit/pixel
Аудио: 44.100 kHz, MPEG Layer 3, 2 ch, ~128.00 kbps avg

Доп. информация: Партизанская правда партизан


General
Формат : AVI
Формат/Информация : Audio Video Interleave
Размер файла : 579 MiB
Продолжительность : 49mn 16s
Режим общего битрейта : Variable
Общий поток : 1 644 Kbps
Программа кодирования : Lavf54.59.106

Video
Идентификатор : 0
Формат : AVC
Формат/Информация : Advanced Video Codec
Профиль формата :
Параметр CABAC формата : No
Параметр ReFrames формата : 1 frame
Параметр GOP формата : M=1, N=12
Идентификатор кодека : H264
Продолжительность : 49mn 16s
Вид битрейта : Variable
Битрейт : 1 504 Kbps
Максимальный битрейт : 3 000 Kbps
Ширина : 720 pixels
Высота : 576 pixels
Соотношение сторон : 4:3
Соотношение сторон в оригинале : 4:3
Частота кадров : 24.000 fps
Стандарт вещания : PAL
Цветовое пространство : YUV
Субдискретизация насыщенности : 4:2:0
Битовая глубина : 8 bits
Тип развёртки : Progressive
Бит/(Пиксели*Кадры) : 0.151
Размер потока : 530 MiB (91%)

Audio
Идентификатор : 1
Формат : MPEG Audio
Версия формата : Version 1
Профиль формата : Layer 3
Режим : Joint stereo
Расширение режима : MS Stereo
Идентификатор кодека : 55
Идентификатор кодека/Подсказка : MP3
Продолжительность : 49mn 16s
Вид битрейта : Constant
Битрейт : 128 Kbps
Каналы : 2 channels
Частота : 44.1 KHz
Метод сжатия : Lossy
Размер потока : 45.1 MiB (8%)
Выравнивание : Aligned on interleaves
Продолжительность промежутка : 26 ms (0.63 video frame)
Время предзагрузки промежутка : 26 ms
Библиотека кодирования : LAME3.98.4









Скачать книги и аудио книги через торрент


Вернуться к началу
 Профиль Отправить личное сообщение  
 
   Похожие торренты   Автор   Торрент   Размер 
В этой теме нет новых непрочитанных сообщений. Быть или не быть / To Be or Not to Be [драма, комедия, военный, 1942] BDRip-AVC, Dub

salma3

0 | 0

1.42 ГБ

В этой теме нет новых непрочитанных сообщений. Невидимый агент / Invisible Agent [фантастика, приключения, военный, 1942] BDRip, Avo

salma3

0 | 0

1.45 ГБ

В этой теме нет новых непрочитанных сообщений. Быть или не быть / To Be or Not to Be [Комедия, военный, 1942] BDRip, Dub

salma3

0 | 0

745.5 МБ

В этой теме нет новых непрочитанных сообщений. Быть или не быть / To Be or Not to Be [Комедия, военный, 1942] BDRip, Dub

salma3

0 | 0

745.5 МБ

В этой теме нет новых непрочитанных сообщений. Убить и закопать / Breathless [Триллер, комедия, 2012] BDRip 720p, Mvo

salma3

0 | 0

3.6 ГБ

В этой теме нет новых непрочитанных сообщений. Убить и закопать / Breathless [Триллер, комедия, 2012] BDRip 1080p, Mvo

salma3

0 | 0

7.04 ГБ

В этой теме нет новых непрочитанных сообщений. Батальон [01-04 из 04] [Военный, боевик, драма, 2018] WEBRip

salma3

0 | 0

2.73 ГБ


СообщениеДобавлено: 16 апр 2015, 12:13 

Не в сети
Зам. Админа
Аватара пользователя
Дата регистрации:
02 дек 2010, 12:39
Спасибо: 12703 / 214
Сообщения: 27959
постер и 3 скрина


Скачать книги и аудио книги через торрент


Вернуться к началу
 Профиль  
 
Начать новую тему Ответить на тему  [ Сообщений: 2 ] 




Для Мосгорсуда, Роскомнадзора и рекламодателей:: rstracker[собака]yandex.ru