COVID-19 - Последняя информация о коронавирусе на сайте Минздрава




Торрент файл
скачать торрент магнет ссылка Добавлен: 11 фев 2015, 22:11
Размер: 288.88 МБ
Сидеров: 5
Личеров: 6
Автор

СообщениеДобавлено: 11 фев 2015, 22:11 

Не в сети
Дата регистрации:
27 апр 2014, 21:05
Спасибо: 11 / 0
Сообщения: 65
Шаман гиперборейской школы - 2 ("В бой идут одни "старики", Алексей Меняйлов)

Перевод: Не требуется, cубтитры: отсутствуют
Формат: WEBRip, AVI, DivX, MP3
Страна: Россия
Режиссер: Алексей Меняйлов
Жанр: Психологический анализ фильма
Продолжительность: 00:23:45
Год выпуска: 2012

Описание: «В бой идут одни «старики»» — шедевр мирового кинематографа. Правда, в силу жреческого содержания смысл фильма массовому зрителю не понятен. В частности, массовый зритель не обращает внимания на центральную фигуру фильма — Макарыча, старшего шамана в элитном гвардейском истребительном полку. А ведь, если вглядеться в каждый с его участием эпизод — ахнешь.
Шедевр «В бой идут одни «старики»» — уникальное явление в мировом кинематографе. Такого нигде больше в мире не найти. В нём показан центральный, ключевой обряд исконной веры. Потрясающе, если понимать что к чему в этом шедевре.


Видео: 720x540 (1.33:1), 25 fps, DivX Codec 4.x ~1498 kbps avg, 0.15 bit/pixel
Аудио: 48 kHz, MPEG Layer 3, 2 ch, ~192.00 kbps avg

Доп. информация: Партизанская правда партизан


General
Формат : AVI
Формат/Информация : Audio Video Interleave
Размер файла : 289 MiB
Продолжительность : 23mn 45s
Общий поток : 1 700 Kbps

Video
Идентификатор : 0
Формат : MPEG-4 Visual
Параметр BVOP формата : 1
Параметр QPel формата : No
Параметр GMC формата : No warppoints
Параметр матрицы формата : Default (H.263)
Режим смешивания : Packed bitstream
Идентификатор кодека : DX50
Идентификатор кодека/Подсказка : DivX 5
Продолжительность : 23mn 45s
Битрейт : 1 499 Kbps
Ширина : 720 pixels
Высота : 540 pixels
Соотношение сторон : 4:3
Частота кадров : 25.000 fps
Цветовое пространство : YUV
Субдискретизация насыщенности : 4:2:0
Битовая глубина : 8 bits
Тип развёртки : Progressive
Метод сжатия : Lossy
Бит/(Пиксели*Кадры) : 0.154
Размер потока : 255 MiB (88%)
Заголовок : Video
Библиотека кодирования : DivX 2682

Audio
Идентификатор : 1
Формат : MPEG Audio
Версия формата : Version 1
Профиль формата : Layer 3
Режим : Joint stereo
Расширение режима : MS Stereo
Идентификатор кодека : 55
Идентификатор кодека/Подсказка : MP3
Продолжительность : 23mn 45s
Вид битрейта : Constant
Битрейт : 192 Kbps
Каналы : 2 channels
Частота : 48.0 KHz
Метод сжатия : Lossy
Размер потока : 32.6 MiB (11%)
Выравнивание : Split accross interleaves
Продолжительность промежутка : 40 ms (1.00 video frame)
Время предзагрузки промежутка : 500 ms
Заголовок : Audio - en-US01









Скачать книги и аудио книги через торрент


Вернуться к началу
 Профиль Отправить личное сообщение  
 
   Похожие торренты   Автор   Торрент   Размер 
В этой теме нет новых непрочитанных сообщений. Одни в бою / Alone We Fight [Военный, 2018] WEBRip, Dvo

salma3

0 | 0

1.28 ГБ

В этой теме нет новых непрочитанных сообщений. Одни в бою / Alone We Fight [Военный, 2018] WEBRip 720p, Dvo

salma3

0 | 0

2.05 ГБ

В этой теме нет новых непрочитанных сообщений. Одни во тьме / Alone in the Dark [ужасы, триллер, 1982] WEBRip 1080p, Avo

salma3

0 | 0

8.66 ГБ

В этой теме нет новых непрочитанных сообщений. Последний бой / Танк [01-04 из 04] [Военный, драма, 2018] WEBRip 720p

salma3

0 | 0

6.35 ГБ

В этой теме нет новых непрочитанных сообщений. Бой с тенью 3D: Последний раунд [боевик, драма, криминал, приключения, 2011] WEBRip 1080p | Open Matte

NTL

0 | 0

4.9 ГБ

В этой теме нет новых непрочитанных сообщений. Ванильное небо / Vanilla Sky [Фантастика, психологический триллер, 2001] BDRip-AVC, Dub

salma3

1 | 3

6.84 ГБ

В этой теме нет новых непрочитанных сообщений. Бой с тенью [Боевик, драма, 2005] DVDRip-AVC

NTL

0 | 0

746.89 МБ


Начать новую тему Ответить на тему  [ 1 сообщение ] 




Для Мосгорсуда, Роскомнадзора и рекламодателей:: rstracker[собака]yandex.ru
cron