COVID-19 - Последняя информация о коронавирусе на сайте Минздрава




Торрент файл
скачать торрент магнет ссылка Добавлен: 03 сен 2014, 21:02
Размер: 400.09 МБ
Сидеров: 0
Личеров: 3
Автор

СообщениеДобавлено: 03 сен 2014, 21:02 

Не в сети
Дата регистрации:
27 апр 2014, 21:05
Спасибо: 11 / 0
Сообщения: 65
Пленные америкосы: позорные детали ("Война Харта") Меняйлов

Перевод: Не требуется, cубтитры: отсутствуют
Формат: WEBRip, AVI, H264, MP3
Страна: Россия
Режиссер: Алексей Меняйлов
Жанр: Фильм о фильме
Продолжительность: 00:41:43
Год выпуска: 2013

Описание: Брюс Уиллис удивил глубиной созданного им образа. Тем более, что замес исходной ситуации - в одном концлагере и русские, и американцы - позволяет заглянуть в прежде сокрытое.

Видео: 720*576 (4:3), 25 fps, MPEG-2, 3427 Kbps, 0.329 bit/pixe
Аудио: 44,1 KHz, MPEG-1 Layer 2, Stereo, ~ 224 Kbps

Общее
Формат : AVI
Формат/Информация : Audio Video Interleave
Размер файла : 400 Мбайт
Продолжительность : 41 м.
Режим общего битрейта : Постоянный
Общий поток : 1340 Кбит/сек

Видео
Идентификатор : 0
Формат : AVC
Формат/Информация : Advanced Video Codec
Профиль формата : Main@L3.0
Параметр CABAC формата : Нет
Параметр ReFrames формата : 1 кадр
Параметр GOP формата : M=1, N=12
Идентификатор кодека : H264
Продолжительность : 41 м.
Вид битрейта : Постоянный
Битрейт : 1200 Кбит/сек
Ширина : 720 пикселей
Высота : 576 пикселей
Соотношение сторон : 16:9
Соотношение сторон в оригинале : 16:9
Частота кадров : 25,000 кадров/сек
Стандарт вещания : PAL
Цветовое пространство : YUV
Субдискретизация насыщенности : 4:2:0
Битовая глубина : 8 бит
Тип развёртки : Прогрессивная
Бит/(Пиксели*Кадры) : 0.116
Размер потока : 358 Мбайт (90%)

Аудио
Идентификатор : 1
Формат : MPEG Audio
Версия формата : Version 1
Профиль формата : Layer 3
Режим : Joint stereo
Идентификатор кодека : 55
Идентификатор кодека/Подсказка : MP3
Продолжительность : 41 м.
Вид битрейта : Постоянный
Битрейт : 128 Кбит/сек
Каналы : 2 канала
Частота : 44,1 КГц
Метод сжатия : С потерями
Размер потока : 38,2 Мбайт (10%)
Выравнивание : Соединение по промежуткам
Продолжительность промежутка : 26 мс. (0,65 видеокадр)
Библиотека кодирования : LAME3.98





Скачать книги и аудио книги через торрент


Вернуться к началу
 Профиль Отправить личное сообщение  
 
   Похожие торренты   Автор   Торрент   Размер 
В этой теме нет новых непрочитанных сообщений. Война небес / Heavens War [Боевик, фантастика, 2018] WEBRip, Avo [Horizon Studio]

salma3

116 | 38

1.36 ГБ

В этой теме нет новых непрочитанных сообщений. Война небес / Heavens War [Боевик, фантастика, 2018] WEBRip 720p, Avo [Horizon Studio]

salma3

0 | 2

2.16 ГБ

В этой теме нет новых непрочитанных сообщений. Жуки [01-16 из 16 + Фильм о сериале] [Комедия, 2019] WEBRip [КПК]

K15

264 | 44

1.68 ГБ

В этой теме нет новых непрочитанных сообщений. Жуки [S01 + Фильм о сериале] [Комедия, 2019] WEBRip

salma3

0 | 0

4.98 ГБ

В этой теме нет новых непрочитанных сообщений. Смотритель маяка [01-12 из 12] [Детектив, шпионский фильм, 2018] WEBRip

salma3

1 | 73

7.44 ГБ

В этой теме нет новых непрочитанных сообщений. Смотритель маяка [01-12 из 12] [Детектив, шпионский фильм, 2018] WEBRip-AVC

salma3

0 | 0

9.06 ГБ

В этой теме нет новых непрочитанных сообщений. Четвертая смена [01-10 из 10] [Криминальный фильм, мелодрама, 2017] WEBRip-AVC

salma3

0 | 0

7.32 ГБ


Начать новую тему Ответить на тему  [ 1 сообщение ] 




Для Мосгорсуда, Роскомнадзора и рекламодателей:: rstracker[собака]yandex.ru
cron