COVID-19 - Последняя информация о коронавирусе на сайте Минздрава




Торрент файл
скачать торрент магнет ссылка Добавлен: 28 май 2014, 21:01
Размер: 345.28 МБ
Сидеров: 2
Личеров: 2
Автор

СообщениеДобавлено: 28 май 2014, 21:01 

Не в сети
Дата регистрации:
27 апр 2014, 21:05
Спасибо: 11 / 0
Сообщения: 65
Как правильно расстреливать (Штрафбат, Николай Досталь, 2004)

Год выпуска: 2013
Страна: Россия
Жанр: боевик, драма, военный
Перевод: Не требуется
Русские субтитры: нет
Продолжительность: 00:29:25

Описание:
Практика Великой Отечественной показала, что трусливый драп можно остановить только расстрелами. Здесь и выплывает великая загадка: почему те, кто оказался свидетелем расстрела, вдруг, обретают почву под ногами, твердо встают на землю и начинают сражаться храбро? Расстрел укрепляет храбрость, ведь если бы расстрел порождал страх, то после расстрелов драпали бы ещё быстрее. Умение правильно организовать расстрел явно относится к тонкому знанию, помогающему во всех областях жизни.

Качество: WEBRip
Формат видео: AVI
Видео кодек: H264
Аудио кодек: MP3
Видео: 720x576 (1.25:1), 25 fps, Intel ITU H.264 ~1501 kbps avg, 0.14 bit/pixel
Аудио: 44.100 kHz, MPEG Layer 3, 2 ch, ~128.00 kbps avg

Общее
Формат : AVI
Формат/Информация : Audio Video Interleave
Размер файла : 345 Мбайт
Продолжительность : 29 м.
Режим общего битрейта : Переменный
Общий поток : 1641 Кбит/сек
Программа кодирования : Lavf54.59.106

Видео
Идентификатор : 0
Формат : AVC
Формат/Информация : Advanced Video Codec
Профиль формата : Baseline@L3.0
Параметр CABAC формата : Нет
Параметр ReFrames формата : 1 кадр
Параметр GOP формата : M=1, N=12
Идентификатор кодека : H264
Продолжительность : 29 м.
Вид битрейта : Переменный
Битрейт : 1501 Кбит/сек
Максимальный битрейт : 3000 Кбит/сек
Ширина : 720 пикселей
Высота : 576 пикселей
Соотношение сторон : 4:3
Соотношение сторон в оригинале : 4:3
Частота кадров : 25,000 кадров/сек
Стандарт вещания : PAL
Цветовое пространство : YUV
Субдискретизация насыщенности : 4:2:0
Битовая глубина : 8 бит
Тип развёртки : Прогрессивная
Бит/(Пиксели*Кадры) : 0.145
Размер потока : 316 Мбайт (91%)

Аудио
Идентификатор : 1
Формат : MPEG Audio
Версия формата : Version 1
Профиль формата : Layer 3
Режим : Joint stereo
Расширение режима : MS Stereo
Идентификатор кодека : 55
Идентификатор кодека/Подсказка : MP3
Продолжительность : 29 м.
Вид битрейта : Постоянный
Битрейт : 128 Кбит/сек
Каналы : 2 канала
Частота : 44,1 КГц
Метод сжатия : С потерями
Размер потока : 26,9 Мбайт (8%)
Выравнивание : Соединение по промежуткам
Продолжительность промежутка : 26 мс. (0,65 видеокадр)
Время предзагрузки промежутка : 26 мс.




Скачать книги и аудио книги через торрент


Вернуться к началу
 Профиль Отправить личное сообщение  
 
   Похожие торренты   Автор   Торрент   Размер 
В этой теме нет новых непрочитанных сообщений. Батальон [01-04 из 04] [Военный, боевик, драма, 2018] WEBRip

salma3

0 | 0

2.73 ГБ

В этой теме нет новых непрочитанных сообщений. Батальон [01-04 из 04] [Военный, боевик, драма, 2018] WEBRip 720p

salma3

0 | 0

5.73 ГБ

В этой теме нет новых непрочитанных сообщений. Бомбардировка / Da hong zha / Air Strike [Боевик, драма, военный, 2018] WEBRip, Dvo

salma3

118 | 77

1.3 ГБ

В этой теме нет новых непрочитанных сообщений. Бомбардировка / Da hong zha / Air Strike [Боевик, драма, военный, 2018] WEBRip 720p, Dvo

salma3

911 | 111

2.93 ГБ

В этой теме нет новых непрочитанных сообщений. Спецназ / SEAL Team [02х12 из 22] [Боевик, драма, военный, 2018] WEBRip 720p, Dvo [Sunshine Studio]

salma3

0 | 0

11.34 ГБ

В этой теме нет новых непрочитанных сообщений. Пятнадцать минут войны / 15 Minutes of War / L'Intervention [Боевик, драма, военный, 2019] WEBRip, Dvo [LakeFilms]

salma3

516 | 60

1.17 ГБ

В этой теме нет новых непрочитанных сообщений. Пятнадцать минут войны / 15 Minutes of War / L'Intervention [Боевик, драма, военный, 2019] WEBRip, Dvo [LakeFilms]

salma3


Начать новую тему Ответить на тему  [ 1 сообщение ] 




Для Мосгорсуда, Роскомнадзора и рекламодателей:: rstracker[собака]yandex.ru
cron