COVID-19 - Последняя информация о коронавирусе на сайте Минздрава




Торрент файл
скачать торрент магнет ссылка Добавлен: 23 май 2014, 21:18
Размер: 713.36 МБ
Сидеров: 0
Личеров: 2
Автор

СообщениеДобавлено: 23 май 2014, 21:18 

Не в сети
Дата регистрации:
27 апр 2014, 21:05
Спасибо: 11 / 0
Сообщения: 65
Принцип "трахни меня" на войне и в жизни ("Золушка") Меняйлов

Год выпуска: 2013
Страна: Россия
Жанр: комедия, приключения, военный
Перевод: Не требуется
Русские субтитры: нет
Продолжительность: 01:00:38
Описание: Описывать комедию дело не благодарное. Ведро воды заменяет стакан сметаны.
Качество: HDRip
Формат видео: AVI
Видео кодек: H264
Аудио кодек: MP3
Видео: 720x576 (1.25:1), 25 fps, Intel ITU H.264 ~1504 kbps avg, 0.14 bit/pixel
Аудио: 44.100 kHz, MPEG Layer 3, 2 ch, ~128.00 kbps avg

Общее
Формат : AVI
Формат/Информация : Audio Video Interleave
Размер файла : 713 Мбайт
Продолжительность : 1 ч. 0 м.
Режим общего битрейта : Переменный
Общий поток : 1645 Кбит/сек
Программа кодирования : Lavf54.59.106

Видео
Идентификатор : 0
Формат : AVC
Формат/Информация : Advanced Video Codec
Профиль формата : Baseline@L3.0
Параметр CABAC формата : Нет
Параметр ReFrames формата : 1 кадр
Параметр GOP формата : M=1, N=12
Идентификатор кодека : H264
Продолжительность : 1 ч. 0 м.
Вид битрейта : Переменный
Битрейт : 1505 Кбит/сек
Максимальный битрейт : 3000 Кбит/сек
Ширина : 720 пикселей
Высота : 576 пикселей
Соотношение сторон : 4:3
Соотношение сторон в оригинале : 4:3
Частота кадров : 25,000 кадров/сек
Стандарт вещания : PAL
Цветовое пространство : YUV
Субдискретизация насыщенности : 4:2:0
Битовая глубина : 8 бит
Тип развёртки : Прогрессивная
Бит/(Пиксели*Кадры) : 0.145
Размер потока : 653 Мбайт (91%)

Аудио
Идентификатор : 1
Формат : MPEG Audio
Версия формата : Version 1
Профиль формата : Layer 3
Режим : Joint stereo
Расширение режима : MS Stereo
Идентификатор кодека : 55
Идентификатор кодека/Подсказка : MP3
Продолжительность : 1 ч. 0 м.
Вид битрейта : Постоянный
Битрейт : 128 Кбит/сек
Каналы : 2 канала
Частота : 44,1 КГц
Метод сжатия : С потерями
Размер потока : 55,5 Мбайт (8%)
Выравнивание : Соединение по промежуткам
Продолжительность промежутка : 26 мс. (0,65 видеокадр)
Время предзагрузки промежутка : 26 мс.
Библиотека кодирования : LAME3.98.4





Скачать книги и аудио книги через торрент


Вернуться к началу
 Профиль Отправить личное сообщение  
 
   Похожие торренты   Автор   Торрент   Размер 
В этой теме нет новых непрочитанных сообщений. Золушка [Сказка, мюзикл, фэнтези, 1947] BDRip 720p [Цветная версия]

salma3

12 | 0

3.87 ГБ

В этой теме нет новых непрочитанных сообщений. Золушка и тайный принц / Cinderella and Secret Prince [Мультфильм, фэнтези, приключения, 2019] WEB-DL 1080p, Mvo

salma3

0 | 0

3.11 ГБ

В этой теме нет новых непрочитанных сообщений. Золушка и тайный принц / Cinderella and Secret Prince [Мультфильм, фэнтези, приключения, 2019] WEB-DLRip, Mvo

salma3

0 | 0

1.45 ГБ

В этой теме нет новых непрочитанных сообщений. Женщина на войне / Kona fer í stríð [Драма, комедия, 2018] BDRip, Avo [BadBajo]

K15

3 | 0

1.46 ГБ

В этой теме нет новых непрочитанных сообщений. Пришелец / Zone Troopers [фантастика, приключения, военный, 1985] HDRip, Dvo

salma3

0 | 0

1.44 ГБ

В этой теме нет новых непрочитанных сообщений. Трахни меня (2018) CamRip

Dievas

276 | 77

120.37 МБ

В этой теме нет новых непрочитанных сообщений. Армейские приключения / In the Army Now [Комедия, военный, 1994] WEB-DLRip 720p, Mvo

salma3

1 | 30

4.37 ГБ


Начать новую тему Ответить на тему  [ 1 сообщение ] 




Для Мосгорсуда, Роскомнадзора и рекламодателей:: rstracker[собака]yandex.ru
cron