COVID-19 - Последняя информация о коронавирусе на сайте Минздрава




Торрент файл
скачать торрент магнет ссылка Добавлен: 13 мар 2012, 01:03
Размер: 695.17 МБ
Сидеров: 9
Личеров: 10
Автор

СообщениеДобавлено: 13 мар 2012, 01:03 

Не в сети
Супермодератор
Аватара пользователя
Дата регистрации:
22 май 2010, 11:03
Возраст: 36
Спасибо: 7931 / 13
Сообщения: 49828
Вторая Мировая - Истинная Слава (Фильм 13-й) / The True Glory


Перевод: Профессиональный (одноголосый), cубтитры: отсутствуют
Формат: DVDRip, AVI, DivX, MP3
Страна: США
Режиссер: Гарсон Канин
Жанр: документальный
Продолжительность: 01:20:53
Год выпуска: 1945

Описание: Этот фильм, выпущенный в 1945 году, компанией «Коламбия Пикчерс» по заказу Военного комитета киноиндустрии США, а также при содействии Информационной службы США и Великобритании, - открывает вступительным словом сам Дуайт Эйзенхауэр.
В фильме использован труд военных кинооператоров США, Канады, Франции, Польши, Бельгии, Нидерландов, Чехословакии, Норвегии и Великобритании.
Начиная со дня мобилизации, картина раскрывает все ключевые моменты падения Берлина наряду с рассказами очевидцев, что и делает историю «живой».
Фильм получил награду Академии за лучшее документальное кино.




Видео: 720x480 (1.50:1), 23.970 fps, DivX Codec 6.6.1 ~1083 kbps avg, 0.13 bit/pixel
Аудио: 44.100 kHz, MPEG Layer 3, 2 ch, ~105.35 kbps avg

Доп. информация:
Фильм 1 "Атака в Тихом океане"
Фильм 2 "Битва за Новую Британию"
Фильм 3 "Направление Токио"
Фильм 4 "Битва за Россию"
Фильм 5 "Прелюдия к войне"
Фильм 6 "Разделить и победить"
Фильм 7 "Нападение нацистов"
Фильм 8 "Битва за Британию"
Фильм 9 "Победа в Тунисе"
Фильм 10 "Битва за Китай"
Фильм 11 "К берегам Иво Джимы. Это Гуадалканал"
Фильм 12 "Америка сражается""

General
Complete name: E:\torrents\true_glory_[tfile.ru].avi
Format: AVI
Format/Info: Audio Video Interleave
File size: 695 MiB
Duration: 1h 20mn
Overall bit rate: 1 202 Kbps
Writing application: VirtualDubMod 1.5.4.1 (build 2178/release)
Writing library: VirtualDubMod build 2178/release

Video
ID: 0
Format: MPEG-4 Visual
Format settings, BVOP: 1
Format settings, QPel: No
Format settings, GMC: No warppoints
Format settings, Matrix: Default (H.263)
Muxing mode: Packed bitstream
Codec ID: DX50
Codec ID/Hint: DivX 5
Duration: 1h 20mn
Bit rate: 1 084 Kbps
Width: 720 pixels
Height: 480 pixels
Display aspect ratio: 3:2
Frame rate: 23.976 fps
Standard: NTSC
Color space: YUV
Chroma subsampling: 4:2:0
Bit depth: 8 bits
Scan type: Progressive
Compression mode: Lossy
Bits/(Pixel*Frame): 0.131
Stream size: 627 MiB (90%)
Writing library: DivX 6.6.1.4

Audio
ID: 1
Format: MPEG Audio
Format version: Version 1
Format profile: Layer 3
Mode: Joint stereo
Mode extension: MS Stereo
Codec ID: 55
Codec ID/Hint: MP3
Duration: 1h 20mn
Bit rate mode: Variable
Bit rate: 105 Kbps
Nominal bit rate: 128 Kbps
Channel(s): 2 channels
Sampling rate: 44.1 KHz
Compression mode: Lossy
Stream size: 60.9 MiB (9%)
Alignment: Aligned on interleaves
Interleave, duration: 26 ms (0.63 video frame)
Interleave, preload duration: 181 ms
Writing library: LAME3.97
Encoding settings: -m j -V 4 -q 2 -lowpass 17 --abr 128







Поделиться:



Скачать книги и аудио книги через торрент


Вернуться к началу
 Профиль Отправить личное сообщение  
 
   Похожие торренты   Автор   Торрент   Размер 
В этой теме нет новых непрочитанных сообщений. Боль и слава / Dolor y gloria / Pain and Glory [Драма, 2019] BDRip, Dub [iTunes]

salma3

5 | 0

2.13 ГБ

В этой теме нет новых непрочитанных сообщений. Боль и слава / Dolor y gloria / Pain and Glory [Драма, 2019] BDRip, Dub [iTunes]

salma3

1 | 0

1.46 ГБ

В этой теме нет новых непрочитанных сообщений. Вторая жизнь / Deuxième vie [комедия, фэнтези, 2000] DVDRip, Mvo

salma3

0 | 2

1.89 ГБ

В этой теме нет новых непрочитанных сообщений. Боль и слава / Dolor y gloria / Pain and Glory [Драма, 2019] BDRemux 1080p, Dub [iTunes]

salma3

0 | 0

25.18 ГБ

В этой теме нет новых непрочитанных сообщений. Боль и слава / Dolor y gloria / Pain and Glory [Драма, 2019] BDRip 1080p, Dub [iTunes]

salma3

1 | 6

13.81 ГБ

В этой теме нет новых непрочитанных сообщений. Вторая первая любовь [01-04 из 04] [Детектив, мелодрама, 2018] WEB-DL 1080p

salma3

0 | 0

6.24 ГБ

В этой теме нет новых непрочитанных сообщений. ЧУМА! Вторая волна / Plague! (Сезон 1-2 , Серия 1-14 из 14 ) ( Андрей Богатырёв) [2020, Комедия , WEB-DLRip - HEVC - 1080p]

Враг Нароода

2 | 1

8.08 ГБ


Начать новую тему Ответить на тему  [ 1 сообщение ] 




Для Мосгорсуда, Роскомнадзора и рекламодателей:: rstracker[собака]yandex.ru
cron