Торрент файл
скачать торрент магнет ссылка Добавлен: 24 авг 2015, 22:12
Размер: 776.42 МБ
Сидеров: 45
Личеров: 6
Автор

СообщениеДобавлено: 24 авг 2015, 22:12 

Не в сети
Дата регистрации:
27 апр 2014, 21:05
Спасибо: 8 / 0
Сообщения: 61
Рокфеллер и Сталин - нюанс аномальной власти

Перевод: Не требуется, cубтитры: отсутствуют
Формат: WEBRip, AVI, DivX, MP3
Страна: Россия
Режиссер: Алексей Меняйлов
Жанр: драма, приключения, биография
Продолжительность: 01:04:41
Год выпуска: 2014

Описание: Казалось бы, Рокфеллер и Сталин очень разные люди. Сталин - величайший правитель первого в мире социалистического государства. А Рокфеллер - капиталист, первый в истории человечества долларовый миллиардер и до сегодняшнего дня, с учетом индексации цен, богатейший человек планеты. Однако Рокфеллера и Сталина объединяло общее хобби, которое и сделало их великими.

Видео: MPEG4, DivX 5, 720x406 (16:9), 25.000 fps, 1 476 Kbps (0.202 bit/pixel)
Аудио: MP3, 48.0 KHz, 2 ch, 192 Kbps, CBR

Доп. информация: Партизанская правда партизан


Общее
Формат : AVI
Формат/Информация : Audio Video Interleave
Размер файла : 776 Мбайт
Продолжительность : 1 ч. 4 м.
Общий поток : 1678 Кбит/сек

Видео
Идентификатор : 0
Формат : MPEG-4 Visual
Параметр BVOP формата : 1
Параметр QPel формата : Нет
Параметр GMC формата : Без точки перехода
Параметр матрицы формата : Default (H.263)
Режим смешивания : Сжатый битовый поток
Идентификатор кодека : DX50
Идентификатор кодека/Подсказка : DivX 5
Продолжительность : 1 ч. 4 м.
Битрейт : 1476 Кбит/сек
Ширина : 720 пикселей
Высота : 406 пикселей
Соотношение сторон : 16:9
Частота кадров : 25,000 кадров/сек
Цветовое пространство : YUV
Субдискретизация насыщенности : 4:2:0
Битовая глубина : 8 бит
Тип развёртки : Прогрессивная
Метод сжатия : С потерями
Бит/(Пиксели*Кадры) : 0.202
Размер потока : 683 Мбайт (88%)
Заголовок : Video
Библиотека кодирования : DivX 2682

Аудио
Идентификатор : 1
Формат : MPEG Audio
Версия формата : Version 1
Профиль формата : Layer 3
Режим : Joint stereo
Расширение режима : MS Stereo
Идентификатор кодека : 55
Идентификатор кодека/Подсказка : MP3
Продолжительность : 1 ч. 4 м.
Вид битрейта : Постоянный
Битрейт : 192 Кбит/сек
Каналы : 2 канала
Частота : 48,0 КГц
Метод сжатия : С потерями
Размер потока : 88,9 Мбайт (11%)
Выравнивание : Разделение по промежуткам
Продолжительность промежутка : 40 мс. (1,00 видеокадр)
Время предзагрузки промежутка : 500 мс.
Заголовок : Audio - en-US01










реклама партнёра


Вернуться к началу
 Профиль Отправить личное сообщение  
 
   Похожие торренты   Автор   Торрент   Размер 
В этой теме нет новых непрочитанных сообщений. Рокфеллер и Сталин - нюанс аномальной власти [драма, приключения, биография, 2014] HDRip

vairgin

3 | 3

838.6 МБ

В этой теме нет новых непрочитанных сообщений. Сталин в своей 1-й ссылке: где тебя встретит великий шаман (Дерсу Узала, 1975) (Алексей Меняйлов) [2014, приключения, биография, WEBRip]

vairgin

5 | 16

1.14 ГБ

В этой теме нет новых непрочитанных сообщений. Сталин и Зоя: трудное решение (Алексей Меняйлов) [2012, Документальный фильм, WEBRip]

vairgin

4 | 3

1.09 ГБ

В этой теме нет новых непрочитанных сообщений. Сталин: тип женщин, формирующих великих правителей (Алексей Меняйлов) [2015, исторический, комедия, WEBRip]

vairgin

1 | 10

699.55 МБ

В этой теме нет новых непрочитанных сообщений. Проститутка как этап в жизни великих (Алексей Меняйлов) [2015, биография, история, психология, WEBRip]

vairgin

15 | 2

251.68 МБ

В этой теме нет новых непрочитанных сообщений. Особенности поведения женщин-мигранток (Алексей Меняйлов) [2014, комедия, военный, WEBRip]

vairgin

17 | 2

119.72 МБ

В этой теме нет новых непрочитанных сообщений. Любовные повадки женщин (Алексей Меняйлов) [2013, мелодрама, детектив, приключения, WEBRip]

vairgin

47 | 8

232.9 МБ


Начать новую тему Ответить на тему  [ 1 сообщение ] 




Для Мосгорсуда, Роскомнадзора и рекламодателей:: mosgorsud-torrent[собачка]yandex.ru