Торрент файл
скачать торрент магнет ссылка Добавлен: 24 июн 2015, 22:26
Размер: 251.68 МБ
Сидеров: 15
Личеров: 2
Автор

СообщениеДобавлено: 24 июн 2015, 22:26 

Не в сети
Дата регистрации:
27 апр 2014, 21:05
Спасибо: 11 / 0
Сообщения: 65
Проститутка как этап в жизни великих

Перевод: Не требуется, cубтитры: отсутствуют
Формат: WEBRip, AVI, DivX, MP3
Страна: Россия
Режиссер: Алексей Меняйлов
Жанр: биография, история, психология
Продолжительность: 00:30:39
Год выпуска: 2015

Описание: В встрече поэта Хафиза и Тамерлана есть ряд интереснейших деталей. Что это такое сделал Великий Тамерлан? Призывая Хафиза, он разве был разгневан? Хотя бы поначалу? Если бы разгневался хоть сколько-то, мог бы махнуть рукой – и никто бы больше о том Хафизе даже и не вспомнил бы. Значит, раз Тамерлан поэта приказал доставить, то хотел что-то проверить. Провести тестирование-эксперимент.

Видео: 640x360 (1.78:1), 25 fps, DivX Codec 4.x ~946 kbps avg, 0.16 bit/pixel
Аудио: 48 kHz, MPEG Layer 3, 2 ch, ~192.00 kbps avg

Доп. информация: Партизанская правда партизан


General
Формат : AVI
Формат/Информация : Audio Video Interleave
Размер файла : 252 MiB
Продолжительность : 30mn 39s
Общий поток : 1 148 Kbps

Video
Идентификатор : 0
Формат : MPEG-4 Visual
Параметр BVOP формата : 1
Параметр QPel формата : No
Параметр GMC формата : No warppoints
Параметр матрицы формата : Default (H.263)
Режим смешивания : Packed bitstream
Идентификатор кодека : DX50
Идентификатор кодека/Подсказка : DivX 5
Продолжительность : 30mn 39s
Битрейт : 946 Kbps
Ширина : 640 pixels
Высота : 360 pixels
Соотношение сторон : 16:9
Частота кадров : 25.000 fps
Цветовое пространство : YUV
Субдискретизация насыщенности : 4:2:0
Битовая глубина : 8 bits
Тип развёртки : Progressive
Метод сжатия : Lossy
Бит/(Пиксели*Кадры) : 0.164
Размер потока : 207 MiB (82%)
Заголовок : Video
Библиотека кодирования : DivX 2682

Audio
Идентификатор : 1
Формат : MPEG Audio
Версия формата : Version 1
Профиль формата : Layer 3
Режим : Joint stereo
Расширение режима : MS Stereo
Идентификатор кодека : 55
Идентификатор кодека/Подсказка : MP3
Продолжительность : 30mn 39s
Вид битрейта : Constant
Битрейт : 192 Kbps
Каналы : 2 channels
Частота : 48.0 KHz
Метод сжатия : Lossy
Размер потока : 42.1 MiB (17%)
Выравнивание : Split accross interleaves
Продолжительность промежутка : 40 ms (1.00 video frame)
Время предзагрузки промежутка : 500 ms
Заголовок : Audio - en-US01










реклама партнёра


Вернуться к началу
 Профиль Отправить личное сообщение  
 
   Похожие торренты   Автор   Торрент   Размер 
В этой теме нет новых непрочитанных сообщений. Сталин: тип женщин, формирующих великих правителей (Алексей Меняйлов) [2015, исторический, комедия, WEBRip]

vairgin

1 | 10

699.55 МБ

В этой теме нет новых непрочитанных сообщений. Как вернуть возлюбленного (Алексей Меняйлов) [2016, История, психология, самиздат, WEBRip]

vairgin

6 | 4

70.48 МБ

В этой теме нет новых непрочитанных сообщений. Почему девушки так торопятся дать? (Алексей Меняйлов) [2015, Психология, юмор, WEBRip]

vairgin

160 | 9

168.52 МБ

В этой теме нет новых непрочитанных сообщений. Второй признак суженой (Алексей Меняйлов) [2015, самиздат, психология, приключения, WEBRip]

vairgin

26 | 2

185.32 МБ

В этой теме нет новых непрочитанных сообщений. Позорная тайна скачущей Украины (Алексей Меняйлов) [2015, политика, психология, юмор, WEBRip]

vairgin

26 | 4

37.73 МБ

В этой теме нет новых непрочитанных сообщений. Секрет успеха от древних самураев (Алексей Меняйлов) [2015, самиздат, психология, приключения, WEBRip]

vairgin

21 | 2

582.44 МБ

В этой теме нет новых непрочитанных сообщений. Какое лицо у женщины, которая хочет тебя? (Алексей Меняйлов) [2015, приключения, психология, WEBRip]

vairgin

29 | 9

245.75 МБ


Начать новую тему Ответить на тему  [ 1 сообщение ] 




Для Мосгорсуда, Роскомнадзора и рекламодателей:: mosgorsud-torrent[собачка]yandex.ru