Торрент файл
скачать торрент магнет ссылка Добавлен: 08 апр 2015, 22:19
Размер: 328.03 МБ
Сидеров: 75
Личеров: 18
Автор

СообщениеДобавлено: 08 апр 2015, 22:19 

Не в сети
Дата регистрации:
27 апр 2014, 21:05
Спасибо: 10 / 0
Сообщения: 64
"Надо" товарища Сталина ("День командира дивизии") Меняйлов

Перевод: Не требуется, cубтитры: отсутствуют
Формат: WEBRip, AVI, DivX, MP3
Страна: Россия
Режиссер: Алексей Меняйлов
Жанр: военный, документальный, история
Продолжительность: 00:35:17
Год выпуска: 2014

Описание: Что представляется от слов, что Сталин сказал: "Надо"?.. Правильно! Все всё бросают и бегут. Даже пену для бритья с рожи лица не стирают. Всё на самом деле так, но даже ещё интересней.

Видео: 720x576 (1.25:1), 25 fps, DivX Codec 4.x ~1098 kbps avg, 0.11 bit/pixel
Аудио: 48 kHz, MPEG Layer 3, 2 ch, ~192.00 kbps avg

Доп. информация: Партизанская правда партизан


General
Формат : AVI
Формат/Информация : Audio Video Interleave
Размер файла : 328 MiB
Продолжительность : 35mn 17s
Общий поток : 1 299 Kbps

Video
Идентификатор : 0
Формат : MPEG-4 Visual
Параметр BVOP формата : 1
Параметр QPel формата : No
Параметр GMC формата : No warppoints
Параметр матрицы формата : Default (H.263)
Режим смешивания : Packed bitstream
Идентификатор кодека : DX50
Идентификатор кодека/Подсказка : DivX 5
Продолжительность : 35mn 17s
Битрейт : 1 098 Kbps
Ширина : 720 pixels
Высота : 576 pixels
Соотношение сторон : 4:3
Частота кадров : 25.000 fps
Стандарт вещания : PAL
Цветовое пространство : YUV
Субдискретизация насыщенности : 4:2:0
Битовая глубина : 8 bits
Тип развёртки : Progressive
Метод сжатия : Lossy
Бит/(Пиксели*Кадры) : 0.106
Размер потока : 277 MiB (84%)
Заголовок : Video
Библиотека кодирования : DivX 2682

Audio
Идентификатор : 1
Формат : MPEG Audio
Версия формата : Version 1
Профиль формата : Layer 3
Режим : Joint stereo
Расширение режима : MS Stereo
Идентификатор кодека : 55
Идентификатор кодека/Подсказка : MP3
Продолжительность : 35mn 17s
Вид битрейта : Constant
Битрейт : 192 Kbps
Каналы : 2 channels
Частота : 48.0 KHz
Метод сжатия : Lossy
Размер потока : 48.5 MiB (15%)
Выравнивание : Split accross interleaves
Продолжительность промежутка : 40 ms (1.00 video frame)
Время предзагрузки промежутка : 500 ms
Заголовок : Audio - en-US01










реклама партнёра


Вернуться к началу
 Профиль Отправить личное сообщение  
 
   Похожие торренты   Автор   Торрент   Размер 
В этой теме нет новых непрочитанных сообщений. Таинственные исчезновения Сталина из его 2-ой ссылки (Алексей Меняйлов) [2014, военный, история, комедия, WEBRip]

vairgin

64 | 3

1005.34 МБ

В этой теме нет новых непрочитанных сообщений. Что надо знать о женщине, садясь с ней в машину (Алексей Меняйлов) [2013, Документальный фильм, WEBRip]

vairgin

2 | 2

402.94 МБ

В этой теме нет новых непрочитанных сообщений. Палач: последняя тень (Алексей Меняйлов) [2015, история, документальный, WEBRip]

vairgin

24 | 13

1.03 ГБ

В этой теме нет новых непрочитанных сообщений. Особенности поведения женщин-мигранток (Алексей Меняйлов) [2014, комедия, военный, WEBRip]

vairgin

17 | 2

119.72 МБ

В этой теме нет новых непрочитанных сообщений. Таинственные исчезновения Сталина из его 2-ой ссылки ("Белый взрыв", "Сталин") Меняйлов [2014, военный, история, комедия, HDRip]

vairgin

2 | 3

1.38 ГБ

В этой теме нет новых непрочитанных сообщений. Проститутки 74-й роты (Женское отделение 74-й роты / Prostitute 74th Branch) (Алексей Меняйлов) [2014, комедия, военный, WEBRip]

vairgin

78 | 8

226.44 МБ

В этой теме нет новых непрочитанных сообщений. Сталин: деблокирование Сталинграда Готом (Меняйлов) "Горячий снег" [2013, Документальный военный история, WEBRip]

vairgin

9 | 2

449.28 МБ


СообщениеДобавлено: 13 ноя 2016, 05:51 

Не в сети
Аватара пользователя
Дата регистрации:
04 ноя 2016, 19:07
Возраст: 35
Спасибо: 0 / 0
Сообщения: 104
Откуда: Madagascar
Excuse for that I interfere … I understand this question. I invite to discussion.

_________________
fat burning food


Вернуться к началу
 Профиль Отправить личное сообщение  
 
Начать новую тему Ответить на тему  [ Сообщений: 2 ] 




Для Мосгорсуда, Роскомнадзора и рекламодателей:: mosgorsud-torrent[собачка]yandex.ru