Торрент файл
скачать торрент магнет ссылка Добавлен: 04 фев 2015, 22:20
Размер: 699.55 МБ
Сидеров: 1
Личеров: 10
Автор

СообщениеДобавлено: 04 фев 2015, 22:20 

Не в сети
Дата регистрации:
27 апр 2014, 21:05
Спасибо: 8 / 0
Сообщения: 63
Сталин: тип женщин, формирующих великих правителей

Перевод: Не требуется, cубтитры: отсутствуют
Формат: WEBRip, AVI, DivX, MP3
Страна: Россия
Режиссер: Алексей Меняйлов
Жанр: исторический, комедия
Продолжительность: 00:57:43
Год выпуска: 2015

Описание: Мы созданы, как целое: мужчина и женщина. Понятно, что великие мужчины сами по себе не появляются.

Видео: 720x406 (1.77:1), 30 fps, DivX Codec 4.x ~1491 kbps avg, 0.17 bit/pixel
Аудио: 48 kHz, MPEG Layer 3, 2 ch, ~192.00 kbps avg

Доп. информация: Партизанская правда партизан


General
Формат : AVI
Формат/Информация : Audio Video Interleave
Размер файла : 700 MiB
Продолжительность : 57mn 43s
Общий поток : 1 694 Kbps

Video
Идентификатор : 0
Формат : MPEG-4 Visual
Параметр BVOP формата : 1
Параметр QPel формата : No
Параметр GMC формата : No warppoints
Параметр матрицы формата : Default (H.263)
Режим смешивания : Packed bitstream
Идентификатор кодека : DX50
Идентификатор кодека/Подсказка : DivX 5
Продолжительность : 57mn 43s
Битрейт : 1 491 Kbps
Ширина : 720 pixels
Высота : 406 pixels
Соотношение сторон : 16:9
Частота кадров : 30.000 fps
Цветовое пространство : YUV
Субдискретизация насыщенности : 4:2:0
Битовая глубина : 8 bits
Тип развёртки : Progressive
Метод сжатия : Lossy
Бит/(Пиксели*Кадры) : 0.170
Размер потока : 615 MiB (88%)
Заголовок : Video
Библиотека кодирования : DivX 2682

Audio
Идентификатор : 1
Формат : MPEG Audio
Версия формата : Version 1
Профиль формата : Layer 3
Режим : Joint stereo
Расширение режима : MS Stereo
Идентификатор кодека : 55
Идентификатор кодека/Подсказка : MP3
Продолжительность : 57mn 43s
Вид битрейта : Constant
Битрейт : 192 Kbps
Каналы : 2 channels
Частота : 48.0 KHz
Метод сжатия : Lossy
Размер потока : 79.3 MiB (11%)
Выравнивание : Split accross interleaves
Продолжительность промежутка : 33 ms (1.00 video frame)
Время предзагрузки промежутка : 500 ms
Заголовок : Audio - en-US01










реклама партнёра


Вернуться к началу
 Профиль Отправить личное сообщение  
 
   Похожие торренты   Автор   Торрент   Размер 
В этой теме нет новых непрочитанных сообщений. Проститутка как этап в жизни великих (Алексей Меняйлов) [2015, биография, история, психология, WEBRip]

vairgin

15 | 2

251.68 МБ

В этой теме нет новых непрочитанных сообщений. Особенности поведения женщин-мигранток (Алексей Меняйлов) [2014, комедия, военный, WEBRip]

vairgin

17 | 2

119.72 МБ

В этой теме нет новых непрочитанных сообщений. Как Украине освободиться от оккупантов (Алексей Меняйлов) [2015, исторический, WEBRip]

vairgin

25 | 12

167.74 МБ

В этой теме нет новых непрочитанных сообщений. Сталин и Зоя: трудное решение (Алексей Меняйлов) [2012, Документальный фильм, WEBRip]

vairgin

4 | 3

1.09 ГБ

В этой теме нет новых непрочитанных сообщений. Любовные повадки женщин (Алексей Меняйлов) [2013, мелодрама, детектив, приключения, WEBRip]

vairgin

47 | 8

232.9 МБ

В этой теме нет новых непрочитанных сообщений. Рокфеллер и Сталин - нюанс аномальной власти (Алексей Меняйлов) [2014, драма, приключения, биография, WEBRip]

vairgin

45 | 6

776.42 МБ

В этой теме нет новых непрочитанных сообщений. Сталин в своей 1-й ссылке: где тебя встретит великий шаман (Дерсу Узала, 1975) (Алексей Меняйлов) [2014, приключения, биография, WEBRip]

vairgin

5 | 16

1.14 ГБ


Начать новую тему Ответить на тему  [ 1 сообщение ] 




Для Мосгорсуда, Роскомнадзора и рекламодателей:: mosgorsud-torrent[собачка]yandex.ru