Торрент файл
скачать торрент магнет ссылка Добавлен: 28 янв 2015, 22:16
Размер: 602.79 МБ
Сидеров: 10
Личеров: 6
Автор

СообщениеДобавлено: 28 янв 2015, 22:16 

Не в сети
Дата регистрации:
27 апр 2014, 21:05
Спасибо: 11 / 0
Сообщения: 65
Как не проморгать человека несущего удачу ("Форрест Гамп") Алексей Меняйлов
Перевод: Не требуется, cубтитры: отсутствуют
Формат: WEBRip, AVI, DivX, MP3
Страна: Россия
Режиссер: Алексей Меняйлов
Жанр: Анализ ключевых эпизодов фильма
Продолжительность: 00:58:21
Год выпуска: 2012

Описание: В деле распознавания человека несущего удачу есть проблема: они прячутся под маской, подчас весьма отталкивающей. В ролике даются практические советы, как подобного человека распознать, и, соответственно, самому приобщиться к удаче. Видеоряд взят из фильма "Форрест Гамп", удостоенного 6-и Оскаров. В этом фильме дан психологически достоверный портрет человека приносящего удачу.

Видео: 640x480 (1.33:1), 25 fps, DivX Codec 4.x ~1242 kbps avg, 0.16 bit/pixel
Аудио: 48 kHz, MPEG Layer 3, 2 ch, ~192.00 kbps avg

Доп. информация: Партизанская правда партизан


General
Формат : AVI
Формат/Информация : Audio Video Interleave
Размер файла : 603 MiB
Продолжительность : 58mn 21s
Общий поток : 1 444 Kbps

Video
Идентификатор : 0
Формат : MPEG-4 Visual
Параметр BVOP формата : 1
Параметр QPel формата : No
Параметр GMC формата : No warppoints
Параметр матрицы формата : Default (H.263)
Режим смешивания : Packed bitstream
Идентификатор кодека : DX50
Идентификатор кодека/Подсказка : DivX 5
Продолжительность : 58mn 21s
Битрейт : 1 242 Kbps
Ширина : 640 pixels
Высота : 480 pixels
Соотношение сторон : 4:3
Частота кадров : 25.000 fps
Цветовое пространство : YUV
Субдискретизация насыщенности : 4:2:0
Битовая глубина : 8 bits
Тип развёртки : Progressive
Метод сжатия : Lossy
Бит/(Пиксели*Кадры) : 0.162
Размер потока : 519 MiB (86%)
Заголовок : Video
Библиотека кодирования : DivX 2682

Audio
Идентификатор : 1
Формат : MPEG Audio
Версия формата : Version 1
Профиль формата : Layer 3
Режим : Joint stereo
Расширение режима : MS Stereo
Идентификатор кодека : 55
Идентификатор кодека/Подсказка : MP3
Продолжительность : 58mn 21s
Вид битрейта : Constant
Битрейт : 192 Kbps
Каналы : 2 channels
Частота : 48.0 KHz
Метод сжатия : Lossy
Размер потока : 80.1 MiB (13%)
Выравнивание : Split accross interleaves
Продолжительность промежутка : 40 ms (1.00 video frame)
Время предзагрузки промежутка : 500 ms
Заголовок : Audio - en-US01










реклама партнёра


Вернуться к началу
 Профиль Отправить личное сообщение  
 
   Похожие торренты   Автор   Торрент   Размер 
В этой теме нет новых непрочитанных сообщений. Что можно узнать о женщине по лицу и одежде (Алексей Меняйлов) [2012, Анализ ключевых эпизодов фильма, WEBRip]

vairgin

44 | 4

274.14 МБ

В этой теме нет новых непрочитанных сообщений. Шаман гиперборейской школы - 2. ("В бой идут одни "старики", Алексей Меняйлов) [2012, Психологический анализ фильма, WEBRip]

vairgin

6 | 6

288.88 МБ

В этой теме нет новых непрочитанных сообщений. Сталин и Зоя: трудное решение (Алексей Меняйлов) [2012, документальный, WEBRip]

salma3

0 | 1

462.35 МБ

В этой теме нет новых непрочитанных сообщений. Секреты успеха от лучших советских актеров (Алексей Меняйлов) [2012, Война, психология, самиздат, WEBRip]

vairgin

17 | 7

128.58 МБ

В этой теме нет новых непрочитанных сообщений. Как Украине освободиться от оккупантов (Алексей Меняйлов) [2015, исторический, WEBRip]

vairgin

25 | 12

167.74 МБ

В этой теме нет новых непрочитанных сообщений. Палач: последняя тень (Алексей Меняйлов) [2015, история, документальный, WEBRip]

vairgin

24 | 13

1.03 ГБ

В этой теме нет новых непрочитанных сообщений. Как вернуть возлюбленного (Алексей Меняйлов) [2016, История, психология, самиздат, WEBRip]

vairgin

6 | 4

70.48 МБ


Начать новую тему Ответить на тему  [ 1 сообщение ] 




Для Мосгорсуда, Роскомнадзора и рекламодателей:: mosgorsud-torrent[собачка]yandex.ru