Торрент файл
скачать торрент магнет ссылка Добавлен: 31 авг 2014, 16:03
Размер: 2.05 ГБ
Сидеров: 0
Личеров: 3
Автор

СообщениеДобавлено: 31 авг 2014, 16:03 

Не в сети
Дата регистрации:
27 апр 2014, 21:05
Спасибо: 8 / 0
Сообщения: 62
Скотина... Скотина, гад, сука! По фильму "Трюкач". (Меняйлов)

Перевод: Не требуется, cубтитры: отсутствуют
Формат: WEBRip, AVI, H264, MP3
Страна: Россия
Режиссер: Алексей Меняйлов
Жанр: Анализ ключевых эпизодов фильма
Продолжительность: 01:24:00
Год выпуска: 2012

Описание: Ролик сделан на основе видеоряда фильма "Трюкач" лидера проката 1980 года. Фильм - психологический шедевр. Естественно в нем есть моменты, которые с однократного просмотра бывают не замечены. Для анализа этого шедевра впервые привлекается Карта Неба, как целое. Само собой посмотреть есть на что и есть чему удивиться.

Video: 720x576 (1.25:1), 25 fps, Intel ITU H.264 ~1480 kbps avg, 0.14 bit/pixel
Audio: 48 kHz, MPEG Layer 3, 2 ch, ~224.00 kbps avg

Общее
Формат : AVI
Формат/Информация : Audio Video Interleave
Профиль формата : OpenDML
Размер файла : 1,33 Гбайт
Продолжительность : 1 ч. 24 м.
Общий поток : 2261 Кбит/сек
Программа кодирования : Lavf55.33.100

Видео
Идентификатор : 1
Формат : AVC
Формат/Информация : Advanced Video Codec
Профиль формата : Main@L3.0
Параметр CABAC формата : Да
Параметр ReFrames формата : 2 кадра
Параметр GOP формата : M=1, N=25
Идентификатор кодека : H264
Продолжительность : 1 ч. 24 м.
Битрейт : 2021 Кбит/сек
Ширина : 720 пикселей
Высота : 576 пикселей
Соотношение сторон : 4:3
Режим частоты кадров : Переменный
Частота кадров : 25,000 кадров/сек
Стандарт вещания : PAL
Цветовое пространство : YUV
Субдискретизация насыщенности : 4:2:0
Битовая глубина : 8 бит
Тип развёртки : Прогрессивная
Бит/(Пиксели*Кадры) : 0.195
Размер потока : 1,19 Гбайт (89%)

Аудио
Идентификатор : 0
Формат : MPEG Audio
Версия формата : Version 1
Профиль формата : Layer 3
Режим : Joint stereo
Идентификатор кодека : 55
Идентификатор кодека/Подсказка : MP3
Продолжительность : 1 ч. 24 м.
Вид битрейта : Постоянный
Битрейт : 224 Кбит/сек
Каналы : 2 канала
Частота : 48,0 КГц
Метод сжатия : С потерями
Размер потока : 135 Мбайт (10%)
Выравнивание : Соединение по промежуткам
Продолжительность промежутка : 40 мс. (1,00 видеокадр)






реклама партнёра


Вернуться к началу
 Профиль Отправить личное сообщение  
 
   Похожие торренты   Автор   Торрент   Размер 
В этой теме нет новых непрочитанных сообщений. Что можно узнать о женщине по лицу и одежде (Алексей Меняйлов) [2012, Анализ ключевых эпизодов фильма, WEBRip]

vairgin

44 | 4

274.14 МБ

В этой теме нет новых непрочитанных сообщений. Как не проморгать человека несущего удачу ("Форрест Гамп") (Алексей Меняйлов) [2012, Анализ ключевых эпизодов фильма, WEBRip]

vairgin

10 | 6

602.79 МБ

В этой теме нет новых непрочитанных сообщений. Ланиста Ботиата. Анализ фильма "Спартак", Стэнли Кубрика [Анализ ключевых эпизодов фильма, 2012] WEBRip

vairgin

1 | 4

2.82 ГБ

В этой теме нет новых непрочитанных сообщений. Аватар. Тайна управления молодой Цахик [Анализ ключевых эпизодов фильма, 2012] WEBRip

vairgin

2 | 3

539.63 МБ

В этой теме нет новых непрочитанных сообщений. Херхор ("Фараон" Ежи Кавалерович) Алексей Меняйлов [2012, психологический анализ фильма, WEBRip] фильм о фильме

vairgin

7 | 3

1.64 ГБ

В этой теме нет новых непрочитанных сообщений. Тайна женщины несущей удачу ("Титаник" Джеймс Кэмерон) [Анализ ключевых эпизодов фильма, 2012] WEBRip

vairgin

0 | 3

134.77 МБ

В этой теме нет новых непрочитанных сообщений. Красота в бизнесе. Такой вот неизвестный, но ломовой прием. ("Крестный отец", "Красотка") Практическая психология. Алексей Меняйлов. [2011, Психологический анализ фильма, DVDRip] фильм о фильме

vairgin

3 | 4

194.5 МБ


Начать новую тему Ответить на тему  [ 1 сообщение ] 




Для Мосгорсуда, Роскомнадзора и рекламодателей:: mosgorsud-torrent[собачка]yandex.ru