Торрент файл
скачать торрент магнет ссылка Добавлен: 20 дек 2013, 15:44
Размер: 1.89 ГБ
Сидеров: 6
Личеров: 4
Автор

СообщениеДобавлено: 20 дек 2013, 15:44 

Не в сети
Супермодератор
Аватара пользователя
Дата регистрации:
15 фев 2012, 16:44
Возраст: 27
Спасибо: 5949 / 2115
Сообщения: 28381
National Geographic: Когда природа даёт сдачи / National Geographic: When Nature Strikes /

Год выпуска: 2005-2010
Жанр: документальный

Описание: Когда природа даёт сдачи...

1. Торнадо / Twister.
3 мая 1999 по Оклахоме пронёсся торнадо, скорость ветра в котором была до 500 км/ч. Это самый сильный торнадо за всю историю наблюдений за ними.

2. Землетрясения / Earhquakes.
Землетрясения разрывают на части ландшафты и населенные пункты. Природа напомнила нам в Лос-Анджелесе, Кобе и Измите о своих смертоносных капризах, и теперь ученые стремятся опережать ее и предсказывать ее разрушительные движения.

3. Идеальный шторм / The Perfect Storm.
На Хэллоуин в 1999 на атлантическое побережье обрушился ураган, шириной 2400 км и скоростью ветра 130 км/ч, вызвав беспрецедентные разрушения.

Страна: США
Продолжительность: 3x ~ 00:45:00
Перевод: Профессиональный (одноголосый)

Видео: 720x416 (1.73:1), 25 fps, XviD build 55 ~1777 kbps avg, 0.24 bit/pixel
Аудио #1: Русский: 48 kHz, MPEG Layer 3, 2 ch, ~128.00 kbps avg [одноголосый]
Аудио #2: Английский: 48 kHz, MPEG Layer 3, 2 ch, ~128.00 kbps avg [Оригинал]
(технические данные всех серий идентичны)

General
Complete name : F:\Dowloads\113-l-when_nature_strikes\113-l-earthquake.avi
Format : AVI
Format/Info : Audio Video Interleave
File size : 656 MiB
Duration : 44mn 45s
Overall bit rate : 2 049 Kbps
Writing application : VirtualDubMod 1.5.10.2 (build 2542/release)
Writing library : VirtualDubMod build 2542/release

Video
ID : 0
Format : MPEG-4 Visual
Format profile : Advanced Simple@L5
Format settings, BVOP : 1
Format settings, QPel : No
Format settings, GMC : No warppoints
Format settings, Matrix : Custom
Codec ID : XVID
Codec ID/Hint : XviD
Duration : 44mn 45s
Bit rate : 1 778 Kbps
Width : 720 pixels
Height : 416 pixels
Display aspect ratio : 16:9
Frame rate : 25.000 fps
Color space : YUV
Chroma subsampling : 4:2:0
Bit depth : 8 bits
Scan type : Progressive
Compression mode : Lossy
Bits/(Pixel*Frame) : 0.237
Stream size : 569 MiB (87%)
Writing library : XviD 1.3.0.dev55

Audio #1
ID : 1
Format : MPEG Audio
Format version : Version 1
Format profile : Layer 3
Mode : Joint stereo
Mode extension : MS Stereo
Codec ID : 55
Codec ID/Hint : MP3
Duration : 44mn 45s
Bit rate mode : Constant
Bit rate : 128 Kbps
Channel(s) : 2 channels
Sampling rate : 48.0 KHz
Compression mode : Lossy
Stream size : 41.0 MiB (6%)
Alignment : Aligned on interleaves
Interleave, duration : 40 ms (1.00 video frame)
Interleave, preload duration : 504 ms
Writing library : LAME3.98.2UUUUUUU

Audio #2
ID : 2
Format : MPEG Audio
Format version : Version 1
Format profile : Layer 3
Mode : Joint stereo
Mode extension : MS Stereo
Codec ID : 55
Codec ID/Hint : MP3
Duration : 44mn 45s
Bit rate mode : Constant
Bit rate : 128 Kbps
Channel(s) : 2 channels
Sampling rate : 48.0 KHz
Compression mode : Lossy
Stream size : 41.0 MiB (6%)
Alignment : Aligned on interleaves
Interleave, duration : 40 ms (1.00 video frame)
Interleave, preload duration : 504 ms
Writing library : LAME3.98.2








_________________
Проголосуй за трекер Открытый торрент трекер - RUS-MEDIA.ORG




реклама партнёра


Вернуться к началу
 Профиль Отправить личное сообщение  
 
   Похожие торренты   Автор   Торрент   Размер 
В этой теме нет новых непрочитанных сообщений. National Geographic: Жизнь в космосе / National Geographic: Living in Space (National Geographic Channels) [2014, документальный, SATRip] AVO

salma3

0 | 1

580.11 МБ

В этой теме нет новых непрочитанных сообщений. National Geographic. Микроскопические убийцы / National Geographic. Microkillers [4 серии из 4] [документальный, 2007] SATRip, Avo

salma3

11 | 4

1.86 ГБ

В этой теме нет новых непрочитанных сообщений. National Geographic: Путешествие к Европе / National Geographic: Journey To Europe (Марк Зануси) [2011, документальный, SATRip] VO

salma3

0 | 1

529.85 МБ

В этой теме нет новых непрочитанных сообщений. National Geographic. Дикий Йеллоустоун: Волчица / National Geographic. Wild Yellowstone: She Wolf [документальный , 2014] SATRip, Mvo

salma3

7 | 5

553.13 МБ

В этой теме нет новых непрочитанных сообщений. National Geographic: Удивительные обитатели Тайваня / National Geographic: Taiwan's Amazing Creatures [2011, Документальный, флора, фауна, путешествия, SATRip] DUB

salma3

0 | 2

568.3 МБ

В этой теме нет новых непрочитанных сообщений. National Geographic: Тайное оружие Гитлера /National Geographic: Hitler's (Nazi) Secret Weapon (Жан-Кристоф Карон) [2010, документальный, HDTVRip] DUB

salma3

1 | 1

701.47 МБ

В этой теме нет новых непрочитанных сообщений. National Geographic. НЛО над Европой / National Geographic. The UFO over Europe (Стюарт Картер) [2012, документальный, научно-познавательный, уфология, IPTVRip] VO

salma3

0 | 1

641.93 МБ


СообщениеДобавлено: 16 июл 2015, 22:53 

Не в сети
Дата регистрации:
12 июл 2015, 18:29
Спасибо: 0 / 0
Сообщения: 7
Спасибо


Вернуться к началу
 Профиль Отправить личное сообщение  
 
Начать новую тему Ответить на тему  [ Сообщений: 2 ] 




Для Мосгорсуда, Роскомнадзора и рекламодателей:: mosgorsud-torrent[собачка]yandex.ru