Торрент файл
скачать торрент магнет ссылка Добавлен: 30 ноя 2012, 01:25
Размер: 567.03 МБ
Сидеров: 1
Личеров: 5
Статус: (salma3)
Автор

СообщениеДобавлено: 30 ноя 2012, 01:25 

Не в сети
Супермодератор
Аватара пользователя
Дата регистрации:
15 фев 2012, 16:44
Возраст: 28
Спасибо: 6643 / 2146
Сообщения: 45766
Апокалипсис. Падение астероида. На следующий день


Перевод: Не требуется, cубтитры: отсутствуют
Формат: SATRip, AVI, H.264, MP3
Страна: Россия
Режиссер: Скай Продакшн
Жанр: документальный
Продолжительность: 00:46:39
Год выпуска: 2012

Описание: Верим мы или нет в апокалипсис, но до обещанного конца света 2012 года осталось совсем мало времени. Пора предусмотреть собственный путь спасения.
Откуда ждать беды? Каким будет конец света? Опасность может прийти в виде огромного метеорита, инопланетного десанта и смертельных вирусов.
И тогда Земля может стать непригодной для жизни... Но есть ли способы избежать планетарной катастрофы?
Съемочная группа документального цикла "Апокалипсис" – это журналисты, первые из всех получившие достоверную информацию о том, где строят бункеры, которые спасут землян от неминуемой гибели.
Ведущий программы Владимир Марамышкин рассмотрит разные точки зрения, проведет опыты и учтет важные факторы, которые могут указать на то, что жизнь на планете Земля под угрозой.


Видео: 704x384 (1.83:1), 30 fps, AVC (x264), Baseline@L3.0, ~1565 kbps avg, 0.19 bit/pixel
Аудио: 48 kHz, MPEG Layer 3, 2 ch, ~128.00 kbps avg
В выпуске:
Огромный астероид падает на планету Земля. Разлом земной коры достигнет глубины в 10 километров. Ударная волна распространится со сверхзвуковой скоростью. Обломки от удара окажутся на околоземной орбите, откуда вновь упадут на землю. По Земле пронесётся огненная буря, уничтожая всё живое, и планета станет необитаемой всего за один день. Доказано, что подобное происходило в истории планеты не менее шести раз. Осколки, ударная волна, жар, или же что-то ещё? Как некоторым видам животных удалось выжить? Как же будет выглядеть наша Земля после падения астероида? И выживет ли после этого человеческая раса? Чтобы понять, какие силы породило это столкновение ученым будет нужен свой собственный взрыв. Команда ученых собирается сделать что-то подобное.
General
Complete name: F:\Dowloads\padenie_asteroida_na_sledyushii_den_[tfile.me].avi
Format: AVI
Format/Info: Audio Video Interleave
File size: 567 MiB
Duration: 46mn 39s
Overall bit rate: 1 699 Kbps
Video
ID: 0
Format: AVC
Format/Info: Advanced Video Codec
Format profile: Baseline@L3.0
Format settings, CABAC: No
Format settings, ReFrames: 1 frame
Codec ID: X264
Codec ID/Info: XiWave GNU GPL x264 MPEG-4
Duration: 10s 0ms
Bit rate mode: Constant
Bit rate: 1 564 Kbps
Width: 704 pixels
Height: 384 pixels
Display aspect ratio: 16:9
Frame rate: 30.000 fps
Color space: YUV
Chroma subsampling: 4:2:0
Bit depth: 8 bits
Scan type: Progressive
Bits/(Pixel*Frame): 0.193
Stream size: 522 MiB (92%)
Audio
ID: 1
Format: MPEG Audio
Format version: Version 1
Format profile: Layer 3
Mode: Joint stereo
Mode extension: MS Stereo
Codec ID: 55
Codec ID/Hint: MP3
Duration: 46mn 39s
Bit rate mode: Constant
Bit rate: 128 Kbps
Channel(s): 2 channels
Sampling rate: 48.0 KHz
Compression mode: Lossy
Stream size: 42.7 MiB (8%)
Alignment: Aligned on interleaves
Interleave, duration: 200 ms (6.00 video frames)









реклама партнёра


Вернуться к началу
 Профиль Отправить личное сообщение  
 
   Похожие торренты   Автор   Торрент   Размер 
В этой теме нет новых непрочитанных сообщений. Странное дело: Апокалипсис. Рождение предков (Эфир от 29.03.2013) [2013, документальный, научно-популярный, история, SATRip]

salma3

0 | 1

565.62 МБ

В этой теме нет новых непрочитанных сообщений. Апокалипсис в Лос-Анджелесе / LA Apocalypse [Фантастика, боевик, триллер, катастрофа, 2014] SATRip, [SDI Media]

Dracon

13 | 4

1.06 ГБ

В этой теме нет новых непрочитанных сообщений. Век оружия. Ручные гранаты (ОСТ ТВ) [2012, документальный, SATRip]

salma3

0 | 1

325.27 МБ

В этой теме нет новых непрочитанных сообщений. Чич и Чонг: Следующий фильм. Укуренные заживо! / Cheech and Chong's Next Movie [комедия, криминал, 1980] WEB-DL 1080p, Avo

salma3

118 | 33

3.7 ГБ

В этой теме нет новых непрочитанных сообщений. Мастера выживания [2012, документальный, научно-популярный, SATRip] AVO

salma3

0 | 1

501.72 МБ

В этой теме нет новых непрочитанных сообщений. В погоне за НЛО: Чужие в джунглях / Chasing UFOs: Alien Castaways [2012, документальный, SATRip] VO

salma3

0 | 1

591.98 МБ

В этой теме нет новых непрочитанных сообщений. В следующий раз я буду стрелять в сердце / La prochaine fois je viserai le coeur (Седрик Анже) [триллер, драма, криминал, 2014] HDRip, Mvo [Лицензия]

Dracon

127 | 5

2.18 ГБ


Начать новую тему Ответить на тему  [ 1 сообщение ] 




Для Мосгорсуда, Роскомнадзора и рекламодателей:: mosgorsud-torrent[собачка]yandex.ru