Торрент файл
скачать торрент магнет ссылка Добавлен: 13 мар 2012, 00:34
Размер: 675.14 МБ
Сидеров: 46
Личеров: 11
Автор

СообщениеДобавлено: 13 мар 2012, 00:34 

Не в сети
Супермодератор
Аватара пользователя
Дата регистрации:
22 май 2010, 11:03
Возраст: 32
Спасибо: 7628 / 13
Сообщения: 49924
Авиакатастрофы. Полёт с пустым баком


Перевод: Не требуется, cубтитры: отсутствуют
Формат: SATRip, AVI, XviD, MP3
Страна: Россия
Жанр: документальный, катастрофы
Продолжительность: 00:49:41
Год выпуска: 2011
Описание: Расследования нашумевших авиакатастоф.

Видео: 704x400 (1.76:1), 25 fps, XviD MPEG-4 Visual ~1698 kbps avg, 0.241 bit/pixel
Аудио: 48 kHz, MPEG Layer 3, 2 ch, ~192.00 kbps avg


Общее
Полное имя: aviakatastrofy.avi
Формат: AVI
Формат/Информация: Audio Video Interleave
Размер файла: 675 Мбайт
Продолжительность: 49 м.
Общий поток: 1900 Кбит/сек
Программа кодирования: VirtualDubModRus 1.5.10.2 (build 2542/release)
Библиотека кодирования: VirtualDubMod build 2542/release

Видео
Идентификатор: 0
Формат: MPEG-4 Visual
Профиль формата: Advanced Simple@L1
Параметр BVOP формата: 1
Параметр QPel формата: Нет
Параметр GMC формата: Без точки перехода
Параметр матрицы формата: Default (H.263)
Идентификатор кодека: XVID
Идентификатор кодека/Подсказка: XviD
Продолжительность: 49 м.
Битрейт: 1698 Кбит/сек
Ширина: 704 пикселя
Высота: 400 пикселей
Соотношение сторон: 16:9
Частота кадров: 25,000 кадров/сек
Цветовое пространство: YUV
Субдискретизация насыщенности: 4:2:0
Битовая глубина: 8 бит
Тип развёртки: Прогрессивная
Метод сжатия: С потерями
Бит/(Пиксели*Кадры): 0.241
Размер потока: 603 Мбайт (89%)
Библиотека кодирования: Lavc52.87.1

Аудио
Идентификатор: 1
Формат: MPEG Audio
Версия формата: Version 1
Профиль формата: Layer 3
Режим: Joint stereo
Расширение режима: MS Stereo
Идентификатор кодека: 55
Идентификатор кодека/Подсказка: MP3
Продолжительность: 49 м.
Вид битрейта: Постоянный
Битрейт: 192 Кбит/сек
Каналы: 2 канала
Частота: 48,0 КГц
Метод сжатия: С потерями
Задержка видео: 16 мс.
Размер потока: 68,2 Мбайт (10%)
Выравнивание: Разделение по промежуткам
Продолжительность промежутка: 40мс. (1,00 видеокадр)
Время предзагрузки промежутка: 500мс.










Поделиться:




реклама партнёра


Вернуться к началу
 Профиль Отправить личное сообщение  
 
   Похожие торренты   Автор   Торрент   Размер 
В этой теме нет новых непрочитанных сообщений. Полет. Три дня после катастрофы (Арсений Гончуков) [2013, мелодрама] HDRip

PriZraK

2 | 5

1.8 ГБ

В этой теме нет новых непрочитанных сообщений. Гибель "Курска" - следственный эксперимент (Россия) [Документальный, Техника и Вооружение, Катастрофы, 2015] SATRip

Dracon

3 | 0

479.53 МБ

В этой теме нет новых непрочитанных сообщений. Русские тайны. ХХ век. Накануне катастрофы (Документальный, история, политика, 2016) IPTVRip от Pshichko66

marya111

204 | 22

651.23 МБ

В этой теме нет новых непрочитанных сообщений. Ледяная дрожь / Ice Quake [приключения, катастрофы, 2010] BDRip 1080p, Dvo

salma3

43 | 13

8.06 ГБ

В этой теме нет новых непрочитанных сообщений. Любовь и другие катастрофы / Love and Other Disasters [мелодрама, комедия, 2006] HDRip, Mvo

salma3

113 | 13

1.45 ГБ

В этой теме нет новых непрочитанных сообщений. BBC: Вояджер: Полет за пределы Солнечной системы / BBC: Voyager: To the Final Frontier (Кристофер Райли) [2012, документальный, научно-познавательный, космос, SATRip] VO

salma3

1 | 2

723.07 МБ

В этой теме нет новых непрочитанных сообщений. Змеиный полет / Snakes on a Plane [боевик, триллер, 2006] SATRip, Dub

salma3

3 | 2

1.45 ГБ


Начать новую тему Ответить на тему  [ 1 сообщение ] 




Для Мосгорсуда, Роскомнадзора и рекламодателей:: mosgorsud-torrent[собачка]yandex.ru