Торрент файл
скачать торрент магнет ссылка Добавлен: 10 июл 2013, 12:47
Размер: 3.62 ГБ
Сидеров: 1
Личеров: 3
Автор

СообщениеДобавлено: 10 июл 2013, 12:47 

Не в сети
Аватара пользователя
Дата регистрации:
19 апр 2012, 13:40
Спасибо: 9 / 0
Сообщения: 23
Отчет Канадской независимой группы по расследованию извлечений органов у живых людей в Китае / Report of the Canadian independent investigation team harvesting organs from living people




Год выпуска: 2009
Жанр: документальный, криминал, расследование, трагедия
Продолжительность: 01:26:12

Режиссер: Творческий коллектив NTDTV
В ролях: исторические лица, граждане

Описание: Отчет бывшего Госсекретаря Канады по Азиатско-Тихоокеанскому региону Дэвида Килгура и международного правозащитника Дэвида Мэйтаса.
9 марта 2006 года газета The Epoch Times опубликовала страшную новость — в Китае найден концлагерь, скрывающийся за воротами клиники Суцзятунь, основными заключёнными которого являются последователи практики Фалунь Дафа Фалуньгун, уже более 10 лет подвергающиеся в Китае самым масштабным в истории репрессиям.
Бежавший из КНР журналист под псевдонимом «Питер», рассказал о тысячах операций по извлечению органов у живых людей, которые по его словам «ужаснее любого кошмара».
«Заявления, приведенные здесь, шокируют настолько, что в них почти невозможно поверить. Эти утверждения, если они являются правдой, выявляют неестественную форму зла, которая, несмотря на всю безнравственность и порочность, которому человечество когда-либо было свидетелем, является все же новой на этой планете. Настоящий ужас заставляет нас в неверии отшатнуться, однако это недоверие вовсе не означает, что данные утверждения ошибочны».

Мастер Ли Хунчжи является основателем Фалунь Дафа (дословный перевод: Фалунь — «колесо Закона»; Дафа — «Великий Закон»), также называется Фалуньгун — система совершенствования души и тела, которая была впервые представлена широкой общественности в Китае в 1992 году в форме традиционной китайской оздоровительной практики цигун.
В последствии на основе лекций Мастера была издана книга.
В основу учения Фалунь Дафа, которое рассказывает о Вселенной и месте в ней человека, положен универсальный принцип «Истина Доброта Терпение». Практика также включает в себя пять комплексов энергетических упражнений для очищения и преобразования тела.
Кроме полного оздоровления физического тела, практикуя по Фалуньгун можно достичь высокой степени нравственности, освобождения от стрессов, раскрытия энергии, спокойствия ума и высокого духовного уровня вплоть до состояния Просветления.
Практика Фалуньгун полностью адаптирована к современной жизни.
Нет ограничений в возрасте, времени и месте занятий.
Занятия полностью бесплатные, нет взносов и пожертвований.
Нет регистрации, процедуры вступления и выхода.
Фалуньгун не преследует политических и коммерческих целей.
Нет расовых, национальных и культурных ограничений.
В настоящее время практикой Фалунь Дафа занимаются десятки миллионов человек в 111 странах и 3 автономных районах (Тайване, Гонконге и Макао).
Работы Мастера Ли Хунчжи переведены более чем на 30 языков, включая основные европейские и русский.
Более двух лет Учитель Ли ездил по всему Китаю, где под эгидой местных Ассоциаций исследования цигун и при поддержке правительственных ведомств провёл более 50 серий лекций по теории и практике Фалуньгун, которые посетили более 100 тысяч человек.
В 1993 году на Восточной выставке здоровья в Пекине Мастеру Ли Хунчжи присвоили звание «Народный мастер цигун», а также вручили самую высокую награду «За лучшие достижения в области нестандартных наук» и «Специальную золотую премию».
В 1995 году Мастер Ли Хунчжи начал проводить лекции за рубежом, получив приглашения посетить Швецию, Францию, Германию, США, Канаду, Австралию и Тайвань.
В 1996 году основной труд Учителя Ли, книга «Чжуань Фалунь» попала в десятку бестселлеров Пекина, по версии издания «Пекинская молодёжь» (Beijing Youth Daily).
В 1998 году только в одном Китае практикой Фалуньгун занималось около 100 миллионов человек.
— В 2000 и 2001 году Мастера Ли Хунчжи выдвигали на соискание Нобелевской премии мира;
— В 2001 году он был награждён премией «Дома свободы» (Freedom House) и стал номинантом учреждённой Европарламентом Премии имени Сахарова «За свободу мысли»;
— В 2007 году был назван гением и занял 12-ю позицию в рейтинге «100 гениев современности», составленном международной консалтинговой компанией Creators Synectics;
— В 2009 году был награждён премией «Духовный лидер — 2009», учреждённой Азиатско-тихоокеанским фондом защиты прав человека.
В настоящее время Фалунь Дафа и Мастер Ли Хунчжи получили более трёх тысяч наград, дипломов правительственных грамот и официальных писем благодарности и поддержки в более 20 странах, в том числе 5 наград в континентальном Китае до репрессий и 10 наград в Тайване.


Прошу скачавших оставаться на раздаче, как можно дольше!



Качество: DVD-5
Формат: DVD video
Видео кодек: MPEG2
Аудио кодек: AC3
Видео: 5800 Кбит/сек (8000 Кбит/сек), 720*480 (4:3), в 29,970 кадр/сек, MPEG Video (NTSC) (Version 2)
Аудио:
Меню #1:English version, 192 Кбит/сек, 48,0 КГц, 16 бит, 2 канала, AC-3 (DVD-Video)
Меню #2:Українська версія, 192 Кбит/сек, 48,0 КГц, 16 бит, 2 канала, AC-3 (DVD-Video)
Меню #3:Русская версия, 192 Кбит/сек, 48,0 КГц, 16 бит, 2 канала, AC-3 (DVD-Video)

Общее
Полное имя : Report_-_harvesting_organs_from_living_people_in_China_DVDVIDEO_TSVIDEO_TS.BUP
Формат : DVD Video
Профиль формата : Menu
Размер файла : 12,0 Кбайт
Режим общего битрейта : Переменный

Видео
Идентификатор : 224 (0xE0)
Формат : MPEG Video
Версия формата : Version 2
Вид битрейта : Переменный
Ширина : 720 пикселей
Высота : 480 пикселей
Соотношение сторон : 4:3
Частота кадров : 29,970 кадров/сек
Стандарт вещания : NTSC
Метод сжатия : С потерями

Общее
Полное имя : H:DaFa!ОбщееVIDEOReport_-_harvesting_organs_from_living_people_in_China_DVDVIDEO_TSVIDEO_TS.IFO
Формат : DVD Video
Профиль формата : Menu
Размер файла : 12,0 Кбайт
Режим общего битрейта : Переменный

Видео
Идентификатор : 224 (0xE0)
Формат : MPEG Video
Версия формата : Version 2
Вид битрейта : Переменный
Ширина : 720 пикселей
Высота : 480 пикселей
Соотношение сторон : 4:3
Частота кадров : 29,970 кадров/сек
Стандарт вещания : NTSC
Метод сжатия : С потерями

Общее
Полное имя : Report_-_harvesting_organs_from_living_people_in_China_DVDVIDEO_TSVIDEO_TS.VOB
Формат : MPEG-PS
Размер файла : 40,0 Кбайт
Продолжительность : 33 мс.
Режим общего битрейта : Переменный
Общий поток : 9930 Кбит/сек

Видео
Идентификатор : 224 (0xE0)
Формат : MPEG Video
Версия формата : Version 2
Профиль формата : Main@Main
Параметр BVOP формата : Нет
Параметр матрицы формата : По умолчанию
Продолжительность : 33 мс.
Вид битрейта : Переменный
Максимальный битрейт : 9000 Кбит/сек
Ширина : 720 пикселей
Высота : 480 пикселей
Соотношение сторон : 4:3
Частота кадров : 29,970 кадров/сек
Стандарт вещания : NTSC
Цветовое пространство : YUV
Субдискретизация насыщенности : 4:2:0
Битовая глубина : 8 бит
Тип развёртки : Прогрессивная
Порядок развёртки : Верхнее поле первое
Метод сжатия : С потерями
Основные цвета : BT.601 NTSC
Характеристики трансфера : BT.601
Коэффициенты матрицы : BT.601

Меню

Общее
Полное имя : Report_-_harvesting_organs_from_living_people_in_China_DVDVIDEO_TSVTS_01_0.BUP
Формат : DVD Video
Профиль формата : Program
Размер файла : 62,0 Кбайт
Продолжительность : 28 м.
Режим общего битрейта : Переменный
Общий поток : 298 бит/сек

Видео
Идентификатор : 224 (0xE0)
Формат : MPEG Video
Версия формата : Version 2
Продолжительность : 28 м.
Вид битрейта : Переменный
Ширина : 720 пикселей
Высота : 480 пикселей
Соотношение сторон : 4:3
Частота кадров : 29,970 кадров/сек
Стандарт вещания : NTSC
Метод сжатия : С потерями

Аудио
Идентификатор : 128 (0x80)
Формат : AC-3
Формат/Информация : Audio Coding 3
Продолжительность : 28 м.
Каналы : 2 канала
Частота : 48,0 КГц
Метод сжатия : С потерями
Язык : Ukrainian

Меню #1
Продолжительность : 28 м.
00:00:00.000 : Chapter 1
List (Audio) : 0

Меню #2
Продолжительность : 28 м.
00:00:00.000 : Chapter 1
List (Audio) : 0

Общее
Полное имя : Report_-_harvesting_organs_from_living_people_in_China_DVDVIDEO_TSVTS_01_0.IFO
Формат : DVD Video
Профиль формата : Program
Размер файла : 62,0 Кбайт
Продолжительность : 28 м.
Режим общего битрейта : Переменный
Общий поток : 298 бит/сек

Видео
Идентификатор : 224 (0xE0)
Формат : MPEG Video
Версия формата : Version 2
Продолжительность : 28 м.
Вид битрейта : Переменный
Ширина : 720 пикселей
Высота : 480 пикселей
Соотношение сторон : 4:3
Частота кадров : 29,970 кадров/сек
Стандарт вещания : NTSC
Метод сжатия : С потерями

Аудио
Идентификатор : 128 (0x80)
Формат : AC-3
Формат/Информация : Audio Coding 3
Продолжительность : 28 м.
Каналы : 2 канала
Частота : 48,0 КГц
Метод сжатия : С потерями
Язык : Ukrainian

Меню #1
Продолжительность : 28 м.
00:00:00.000 : Chapter 1
List (Audio) : 0

Меню #2
Продолжительность : 28 м.
00:00:00.000 : Chapter 1
List (Audio) : 0

Общее
Полное имя : Report_-_harvesting_organs_from_living_people_in_China_DVDVIDEO_TSVTS_01_0.VOB
Формат : MPEG-PS
Размер файла : 3,73 Мбайт
Продолжительность : 30 с.
Режим общего битрейта : Переменный
Общий поток : 1027 Кбит/сек

Видео
Идентификатор : 224 (0xE0)
Формат : MPEG Video
Версия формата : Version 2
Профиль формата : Main@Main
Параметр BVOP формата : Нет
Параметр матрицы формата : По умолчанию
Параметр GOP формата : N=1
Продолжительность : 33 мс.
Вид битрейта : Переменный
Битрейт : 815 Кбит/сек
Максимальный битрейт : 9000 Кбит/сек
Ширина : 720 пикселей
Высота : 480 пикселей
Соотношение сторон : 4:3
Частота кадров : 29,970 кадров/сек
Стандарт вещания : NTSC
Цветовое пространство : YUV
Субдискретизация насыщенности : 4:2:0
Битовая глубина : 8 бит
Тип развёртки : Прогрессивная
Порядок развёртки : Верхнее поле первое
Метод сжатия : С потерями
Бит/(Пиксели*Кадры) : 0.079
Размер потока : 3,32 Кбайт (0%)
Основные цвета : BT.601 NTSC
Характеристики трансфера : BT.601
Коэффициенты матрицы : BT.601

Аудио
Идентификатор : 192 (0xC0)
Формат : MPEG Audio
Версия формата : Version 1
Профиль формата : Layer 2
Продолжительность : 30 с.
Вид битрейта : Постоянный
Битрейт : 192 Кбит/сек
Каналы : 2 канала
Частота : 48,0 КГц
Метод сжатия : С потерями
Размер потока : 714 Кбайт (19%)

Текст
Идентификатор : 189 (0xBD)-32 (0x20)
Формат : RLE
Формат/Информация : Run-length encoding
Режим смешивания : DVD-Video

Меню

Общее
Полное имя : Report_-_harvesting_organs_from_living_people_in_China_DVDVIDEO_TSVTS_01_1.VOB
Формат : MPEG-PS
Размер файла : 1000 Мбайт
Продолжительность : 23 м.
Режим общего битрейта : Переменный
Общий поток : 6001 Кбит/сек

Видео
Идентификатор : 224 (0xE0)
Формат : MPEG Video
Версия формата : Version 2
Профиль формата : Main@Main
Параметр BVOP формата : Да
Параметр матрицы формата : По умолчанию
Параметр GOP формата : M=3, N=15
Продолжительность : 23 м.
Вид битрейта : Переменный
Битрейт : 5690 Кбит/сек
Максимальный битрейт : 8000 Кбит/сек
Ширина : 720 пикселей
Высота : 480 пикселей
Соотношение сторон : 4:3
Частота кадров : 29,970 кадров/сек
Стандарт вещания : NTSC
Цветовое пространство : YUV
Субдискретизация насыщенности : 4:2:0
Битовая глубина : 8 бит
Тип развёртки : Чересстрочная
Порядок развёртки : Нижнее поле первое
Метод сжатия : С потерями
Бит/(Пиксели*Кадры) : 0.549
Размер потока : 948 Мбайт (95%)

Аудио
Идентификатор : 189 (0xBD)-128 (0x80)
Формат : AC-3
Формат/Информация : Audio Coding 3
Расширение режима : CM (complete main)
Параметр Endianness формата : Big
Режим смешивания : DVD-Video
Продолжительность : 23 м.
Вид битрейта : Постоянный
Битрейт : 192 Кбит/сек
Каналы : 2 канала
Расположение каналов : Front: L R
Частота : 48,0 КГц
Битовая глубина : 16 бит
Метод сжатия : С потерями
Размер потока : 32,0 Мбайт (3%)

Меню

Общее
Полное имя : Report_-_harvesting_organs_from_living_people_in_China_DVDVIDEO_TSVTS_01_2.VOB
Формат : MPEG-PS
Размер файла : 1000 Мбайт
Продолжительность : 5 с. 506 мс.
Режим общего битрейта : Переменный
Общий поток : 1524 Мбит/сек

Видео
Идентификатор : 224 (0xE0)
Формат : MPEG Video
Версия формата : Version 2
Профиль формата : Main@Main
Параметр BVOP формата : Да
Параметр матрицы формата : По умолчанию
Параметр GOP формата : M=3, N=15
Продолжительность : 5 с. 506 мс.
Вид битрейта : Переменный
Битрейт : 1493 Мбит/сек
Максимальный битрейт : 8000 Кбит/сек
Ширина : 720 пикселей
Высота : 480 пикселей
Соотношение сторон : 4:3
Частота кадров : 29,970 кадров/сек
Стандарт вещания : NTSC
Цветовое пространство : YUV
Субдискретизация насыщенности : 4:2:0
Битовая глубина : 8 бит
Тип развёртки : Чересстрочная
Порядок развёртки : Нижнее поле первое
Метод сжатия : С потерями
Бит/(Пиксели*Кадры) : 144.178
Размер потока : 980 Мбайт (98%)

Аудио
Идентификатор : 189 (0xBD)-128 (0x80)
Формат : AC-3
Формат/Информация : Audio Coding 3
Расширение режима : CM (complete main)
Параметр Endianness формата : Big
Режим смешивания : DVD-Video
Продолжительность : 5 с. 506 мс.
Вид битрейта : Постоянный
Битрейт : 192 Кбит/сек
Каналы : 2 канала
Расположение каналов : Front: L R
Частота : 48,0 КГц
Битовая глубина : 16 бит
Метод сжатия : С потерями
Задержка видео : -200 мс.
Размер потока : 129 Кбайт (0%)

Меню

Общее
Полное имя : Report_-_harvesting_organs_from_living_people_in_China_DVDVIDEO_TSVTS_01_3.VOB
Формат : MPEG-PS
Размер файла : 1000 Мбайт
Продолжительность : 5 с. 506 мс.
Режим общего битрейта : Переменный
Общий поток : 1524 Мбит/сек

Видео
Идентификатор : 224 (0xE0)
Формат : MPEG Video
Версия формата : Version 2
Профиль формата : Main@Main
Параметр BVOP формата : Да
Параметр матрицы формата : По умолчанию
Параметр GOP формата : M=3, N=15
Продолжительность : 5 с. 506 мс.
Вид битрейта : Переменный
Битрейт : 1493 Мбит/сек
Максимальный битрейт : 8000 Кбит/сек
Ширина : 720 пикселей
Высота : 480 пикселей
Соотношение сторон : 4:3
Частота кадров : 29,970 кадров/сек
Стандарт вещания : NTSC
Цветовое пространство : YUV
Субдискретизация насыщенности : 4:2:0
Битовая глубина : 8 бит
Тип развёртки : Чересстрочная
Порядок развёртки : Нижнее поле первое
Метод сжатия : С потерями
Бит/(Пиксели*Кадры) : 144.166
Размер потока : 980 Мбайт (98%)

Аудио
Идентификатор : 189 (0xBD)-128 (0x80)
Формат : AC-3
Формат/Информация : Audio Coding 3
Расширение режима : CM (complete main)
Параметр Endianness формата : Big
Режим смешивания : DVD-Video
Продолжительность : 5 с. 506 мс.
Вид битрейта : Постоянный
Битрейт : 192 Кбит/сек
Каналы : 2 канала
Расположение каналов : Front: L R
Частота : 48,0 КГц
Битовая глубина : 16 бит
Метод сжатия : С потерями
Задержка видео : -178 мс.
Размер потока : 129 Кбайт (0%)

Меню

Общее
Полное имя : Report_-_harvesting_organs_from_living_people_in_China_DVDVIDEO_TSVTS_01_4.VOB
Формат : MPEG-PS
Размер файла : 706 Мбайт
Продолжительность : 16 м.
Режим общего битрейта : Переменный
Общий поток : 5949 Кбит/сек

Видео
Идентификатор : 224 (0xE0)
Формат : MPEG Video
Версия формата : Version 2
Профиль формата : Main@Main
Параметр BVOP формата : Да
Параметр матрицы формата : По умолчанию
Параметр GOP формата : M=3, N=15
Продолжительность : 16 м.
Вид битрейта : Переменный
Битрейт : 5639 Кбит/сек
Максимальный битрейт : 8000 Кбит/сек
Ширина : 720 пикселей
Высота : 480 пикселей
Соотношение сторон : 4:3
Частота кадров : 29,970 кадров/сек
Стандарт вещания : NTSC
Цветовое пространство : YUV
Субдискретизация насыщенности : 4:2:0
Битовая глубина : 8 бит
Тип развёртки : Чересстрочная
Порядок развёртки : Нижнее поле первое
Метод сжатия : С потерями
Бит/(Пиксели*Кадры) : 0.544
Размер потока : 669 Мбайт (95%)

Аудио
Идентификатор : 189 (0xBD)-128 (0x80)
Формат : AC-3
Формат/Информация : Audio Coding 3
Расширение режима : CM (complete main)
Параметр Endianness формата : Big
Режим смешивания : DVD-Video
Продолжительность : 16 м.
Вид битрейта : Постоянный
Битрейт : 192 Кбит/сек
Каналы : 2 канала
Расположение каналов : Front: L R
Частота : 48,0 КГц
Битовая глубина : 16 бит
Метод сжатия : С потерями
Задержка видео : -143 мс.
Размер потока : 22,8 Мбайт (3%)



_________________
<<<ДРУГИЕ РАЗДАЧИ НА ЭТУ ТЕМУ>>>



реклама партнёра


Вернуться к началу
 Профиль Отправить личное сообщение  
 
   Похожие торренты   Автор   Торрент   Размер 
В этой теме нет новых непрочитанных сообщений. Они похожи на людей / They Look Like People [триллер, драма, детектив, 2015] WEBDLRip, Dvo

salma3

47 | 2

1.37 ГБ

В этой теме нет новых непрочитанных сообщений. Возвращение живых мертвецов / The Return of the Living Dead [ужасы, 1985] BDRip-AVC, Dvo

salma3

11 | 36

744.44 МБ

В этой теме нет новых непрочитанных сообщений. Возвращение живых мертвецов 3 / Return of the Living Dead 3 [ужасы, 1993] BDRip-AVC, Mvo

salma3

40 | 23

744.89 МБ

В этой теме нет новых непрочитанных сообщений. Ночь живых мертвецов / Night of the Living Dead [ужасы, 1968] BDRip 720p, Dvo+Avo+Sub

salma3

37 | 13

4.36 ГБ

В этой теме нет новых непрочитанных сообщений. Ночь Живых Мертвецов / Night of the Living Dead [Ужасы, 1990] BDRip 1080p, Avo+Sub

salma3

102 | 23

7.33 ГБ

В этой теме нет новых непрочитанных сообщений. Ночь Живых Мертвецов / Night Of The Living Dead [ужасы, 1990] BDRemux 1080p, Avo+Sub

salma3

31 | 3

24.06 ГБ

В этой теме нет новых непрочитанных сообщений. Возвращение живых мертвецов 3 / Return of the Living Dead 3 [Ужасы, Мелодрама, 1993] ВDRip 720p, Mvo

salma3

3 | 66

4.37 ГБ


Начать новую тему Ответить на тему  [ 1 сообщение ] 




Для Мосгорсуда, Роскомнадзора и рекламодателей:: mosgorsud-torrent[собачка]yandex.ru