Торрент файл
скачать торрент магнет ссылка Добавлен: 13 мар 2012, 00:29
Размер: 551.14 МБ
Сидеров: 9
Личеров: 10
Автор

СообщениеДобавлено: 13 мар 2012, 00:29 

Не в сети
Супермодератор
Аватара пользователя
Дата регистрации:
22 май 2010, 11:03
Возраст: 32
Спасибо: 7636 / 13
Сообщения: 49923
Побег: Эскаполк / Breakout: The Escapist


Перевод: Профессиональный (одноголосый), cубтитры: отсутствуют
Формат: HDTVRip, MKV, H.264, MP3
Страна: США
Режиссер: National Geographic
Жанр: документальный
Продолжительность: 00:44:56
Год выпуска: 2010
Описание: Побег - это истории о настоящих побегах из тюрем,рассказанные со слов участников,а так же по сообщениям из новостей и информации из открытых источников.
Видео: 1280x720 (16:9), 25.000 fps, AVC(х264), , ~ 1 552 Kbps, 0.067 bit/pixel
Аудио: 48 kHz, MPEG Layer 3, 2 ch, ~128.00 kbps avg
General
Unique ID: 130589702922090865793779834935123211366 (0x623EA974279507CBF7E82F384CD97466)
Complete name: D:\Документальное видео\breakout_the_escapist_[tfile.ru].mkv
Format: Matroska
Format version: Version 2
File size: 551 MiB
Duration: 44mn 56s
Overall bit rate: 1 715 Kbps
Writing application: XviD4PSP 6.0 / 53.6.0
Writing library: XviD4PSP 6.0 / 53.6.0

Video
ID: 1
Format: AVC
Format/Info: Advanced Video Codec
Format profile:
Format settings, CABAC: Yes
Format settings, ReFrames: 3 frames
Codec ID: V_MPEG4/ISO/AVC
Duration: 44mn 56s
Bit rate: 1 552 Kbps
Width: 1 280 pixels
Height: 720 pixels
Display aspect ratio: 16:9
Frame rate mode: Variable
Frame rate: 25.000 fps
Color space: YUV
Chroma subsampling: 4:2:0
Bit depth: 8 bits
Scan type: Progressive
Bits/(Pixel*Frame): 0.067
Stream size: 499 MiB (91%)
Writing library: x264 core 116 r2044M 392e762
Encoding settings: cabac=1 / ref=3 / deblock=1:0:0 / analyse=0x3:0x133 / me=hex / subme=7 / psy=1 / psy_rd=1.00:0.20 / mixed_ref=1 / me_range=16 / chroma_me=1 / trellis=1 / 8x8dct=1 / cqm=0 / deadzone=21,11 / fast_pskip=1 / chroma_qp_offset=-3 / threads=6 / sliced_threads=0 / nr=0 / decimate=1 / interlaced=0 / bluray_compat=0 / constrained_intra=0 / bframes=3 / b_pyramid=1 / b_adapt=2 / b_bias=0 / direct=3 / weightb=1 / open_gop=0 / weightp=2 / keyint=250 / keyint_min=25 / scenecut=40 / intra_refresh=0 / rc_lookahead=40 / rc=crf / mbtree=1 / crf=21.0 / qcomp=0.60 / qpmin=10 / qpmax=51 / qpstep=4 / vbv_maxrate=1800 / vbv_bufsize=1835 / crf_max=30.0 / nal_hrd=none / ip_ratio=1.40 / aq=1:1.00
Default: Yes
Forced: No

Audio
ID: 2
Format: MPEG Audio
Format version: Version 1
Format profile: Layer 3
Mode: Joint stereo
Mode extension: MS Stereo
Codec ID: A_MPEG/L3
Codec ID/Hint: MP3
Duration: 44mn 56s
Bit rate mode: Constant
Bit rate: 128 Kbps
Channel(s): 2 channels
Sampling rate: 48.0 KHz
Compression mode: Lossy
Stream size: 41.1 MiB (7%)
Writing library: LAME3.98.2
Language: Russian
Default: Yes
Forced: No









Поделиться:




реклама партнёра


Вернуться к началу
 Профиль Отправить личное сообщение  
 
   Похожие торренты   Автор   Торрент   Размер 
В этой теме нет новых непрочитанных сообщений. National Geographic: Тайное оружие Гитлера /National Geographic: Hitler's (Nazi) Secret Weapon (Жан-Кристоф Карон) [2010, документальный, HDTVRip] DUB

salma3

1 | 1

701.47 МБ

В этой теме нет новых непрочитанных сообщений. National Geographic: Жизнь в космосе / National Geographic: Living in Space (National Geographic Channels) [2014, документальный, SATRip] AVO

salma3

0 | 1

580.11 МБ

В этой теме нет новых непрочитанных сообщений. National Geographic. Дикий Йеллоустоун: Волчица / National Geographic. Wild Yellowstone: She Wolf [документальный , 2014] SATRip, Mvo

salma3

7 | 5

553.13 МБ

В этой теме нет новых непрочитанных сообщений. National Geographic: Путешествие к Европе / National Geographic: Journey To Europe (Марк Зануси) [2011, документальный, SATRip] VO

salma3

0 | 1

529.85 МБ

В этой теме нет новых непрочитанных сообщений. National Geographic. НЛО над Европой / National Geographic. The UFO over Europe (Стюарт Картер) [2012, документальный, научно-познавательный, уфология, IPTVRip] VO

salma3

0 | 1

641.93 МБ

В этой теме нет новых непрочитанных сообщений. National Geographic. Микроскопические убийцы / National Geographic. Microkillers [4 серии из 4] [документальный, 2007] SATRip, Avo

salma3

11 | 4

1.86 ГБ

В этой теме нет новых непрочитанных сообщений. National Geographic: Путешествие на край Вселенной / National Geographic: Journey to the Edge of the Universe (Явар Аббас) [2008, документальный, космос, BDRip] DUB

salma3

6 | 1

1.46 ГБ


Начать новую тему Ответить на тему  [ 1 сообщение ] 




Для Мосгорсуда, Роскомнадзора и рекламодателей:: mosgorsud-torrent[собачка]yandex.ru