Торрент файл
скачать торрент магнет ссылка Добавлен: 11 дек 2011, 01:05
Размер: 1.1 ГБ
Сидеров: 8
Личеров: 9
Автор

СообщениеДобавлено: 11 дек 2011, 01:05 

Не в сети
Супермодератор
Аватара пользователя
Дата регистрации:
22 май 2010, 11:03
Возраст: 33
Спасибо: 7730 / 13
Сообщения: 49846
Коллекция "Золотой глобус". Фильм 42 - Лос-Анджелес. Американская мечта


Перевод: Профессиональный (полное дублирование), cубтитры: отсутствуют
Формат: DVDRip-AVC, MKV, H.264, AC3

Страна: Германия, Польша, Россия
Режиссер: Майкл Линдер
Жанр: путешествия и туризм

Продолжительность: 00:58:35
Год выпуска: 2009

Описание: Вместе с прилегающими территориями Лос-Анджелес входит в состав второго по величине после Нью-Йорка городского комплекса в США. В нем проживает почти половина жителей всего штата Калифорния. Примерно 700 тысяч — это иммигранты. Благодаря им на улицах города можно услышать практически все языки мира. Самый известный и популярный район Лос-Анджелеса — это, разумеется, Голливуд. В столице американского кино мы пройдем по Аллее славы с двумя с половиной тысячами бронзовых звезд, заглянем в легендарные кинотеатры и в «Энтертэймент Мьюзиум», посетим помещения киностудии «Юниверсал». Беверли-Хиллз обязан славой своим знаменитым жителям. Многие из них — звезды кино, театра или телевидения. Богатым и знаменитым принадлежит также Санта-Барбара, расположенная на тихоокеанском побережье. Атмосфера вечного праздника круглый год царит в соседней Санта-Монике, славящейся прекрасными пляжами, богатыми торговыми аллеями и широким выбором развлечений. Венис-Бич был когда-то колонией битников и хиппи, а сегодня является меккой разнообразных оригиналов, благодаря которым в городке не прекращается бесконечный карнавал. Кинопутешествие мы завершим в самом центре Лос-Анджелеса, где познакомимся с его основными достопримечательностями.

Видео: 720x544 (1.32:1), 25.000 fps, AVC(х264), , ~ 2300 Kbps, 0.235 bit/pixel
Аудио #1: Русский 48 kHz, AС3 Dolby Digital, 2 ch (L, R), ~ 192 kbps avg Профессиональный (полное дублирование)
Аудио #2: Украинский 48 kHz, AС3 Dolby Digital, 2 ch (L, R), ~ 192 kbps avg Профессиональный (полное дублирование)

Релиз группа: Автор:


Формат: Matroska
Версия формата: Version 2
Размер файла: 1,10 Гбайт
Продолжительность: 58 м.
Общий поток: 2693 Кбит/сек
Программа кодирования: XviD4PSP 6.0 / 53.6.0
Библиотека кодирования: XviD4PSP 6.0 / 53.6.0

Видео
Идентификатор: 1
Формат: AVC
Формат/Информация: Advanced Video Codec
Профиль формата:
Параметр CABAC формата: Да
Параметр ReFrames формата: 3 кадра
Параметры GOP формата: N=1
Идентификатор кодека: V_MPEG4/ISO/AVC
Продолжительность: 58 м.
Битрейт: 2300 Кбит/сек
Ширина: 720 пикс.
Высота: 544 пикс.
Соотношение сторон: 1,289
Режим частоты кадров: Переменный
Частота кадров: 25,000 кадр/сек
Цветовое пространство: YUV
Подвыборка цветности: 4:2:0
Битовая глубина: 8 бит
Тип развёртки: MBAFF
Бит/(Пиксели*Кадры): 0.235
Размер потока: 945 Мбайт (84%)
Библиотека кодирования: x264 core 116 r2019M 9cc407d
Настройки программы: cabac=1 / ref=3 / deblock=1:-1:-1 / analyse=0x3:0x133 / me=hex / subme=7 / psy=1 / psy_rd=1.00:0.15 / mixed_ref=1 / me_range=16 / chroma_me=1 / trellis=1 / 8x8dct=1 / cqm=0 / deadzone=21,11 / fast_pskip=1 / chroma_qp_offset=-3 / threads=6 / sliced_threads=0 / nr=0 / decimate=1 / interlaced=tff / bluray_compat=0 / constrained_intra=0 / bframes=3 / b_pyramid=1 / b_adapt=2 / b_bias=0 / direct=3 / weightb=1 / open_gop=0 / weightp=0 / keyint=250 / keyint_min=25 / scenecut=40 / intra_refresh=0 / rc_lookahead=40 / rc=abr / mbtree=1 / bitrate=2300 / ratetol=1.0 / qcomp=0.60 / qpmin=10 / qpmax=51 / qpstep=4 / ip_ratio=1.40 / aq=1:1.00

Аудио #1
Идентификатор: 2
Формат: AC-3
Формат/Информация: Audio Coding 3
Расширение режима: CM (complete main)
Идентификатор кодека: A_AC3
Продолжительность: 58 м.
Вид битрейта: Постоянный
Битрейт: 192 Кбит/сек
Каналы: 2 канала
Расположение каналов: Front: L R
Частота: 48,0 КГц
Битовая глубина: 16 бит
Метод сжатия: С потерями
Размер потока: 80,5 Мбайт (7%)
Язык: Russian

Аудио #2
Идентификатор: 3
Формат: AC-3
Формат/Информация: Audio Coding 3
Расширение режима: CM (complete main)
Идентификатор кодека: A_AC3
Продолжительность: 58 м.
Вид битрейта: Постоянный
Битрейт: 192 Кбит/сек
Каналы: 2 канала
Расположение каналов: Front: L R
Частота: 48,0 КГц
Битовая глубина: 16 бит
Метод сжатия: С потерями
Размер потока: 80,5 Мбайт (7%)
Язык: Ukrainian













Поделиться:



Вернуться к началу
 Профиль Отправить личное сообщение  
 
   Похожие торренты   Автор   Торрент   Размер 
В этой теме нет новых непрочитанных сообщений. Путешествия Гулливера / Gulliver's Travels [Фэнтези, приключения, семейный, 1996] DVDRip, Mvo

salma3

39 | 13

2.19 ГБ

В этой теме нет новых непрочитанных сообщений. Орёл и Решка. Рай и Ад [S13] ( Реалити-шоу, путешествия, познавательный, 2017) WEBRip 720p от New-Team

marya111

139 | 48

2.43 ГБ

В этой теме нет новых непрочитанных сообщений. Непутевые заметки с Дмитрием Крыловым [01-03] ( Документальный, познавательный, путешествие, туризм, 2017) HDTVRip от Files-х

marya111

15 | 3

947.26 МБ

В этой теме нет новых непрочитанных сообщений. Непутевые заметки с Дмитрием Крыловым [01-03] (Документальный, познавательный, путешествие, туризм, 2017) HDTVRip от Files-х

marya111

32 | 5

567.35 МБ

В этой теме нет новых непрочитанных сообщений. Американская семейка / Modern Family [07х01-16] (Джейсон Уайнер, Майкл Спиллер, Крис Кох) [2015, Комедия, WEB-DLRip | LostFilm]

Dracon

33 | 37

5.04 ГБ

В этой теме нет новых непрочитанных сообщений. Американская семейка / Modern Family [07x01-06 из 24] (Майкл Спиллер, Джейсон Уайнер, Гэйл Манкусо) [2015, Комедия, WEB-DL 720p | LostFilm]

Dracon

56 | 82

4.32 ГБ

В этой теме нет новых непрочитанных сообщений. Американская семейка / Modern Family [07x01-07 из 24] (Джейсон Уайнер, Майкл Спиллер, Крис Кох) [2015, Комедия, HDTV 720p | Gears Media]

Dracon

17 | 41

4.62 ГБ


Начать новую тему Ответить на тему  [ 1 сообщение ] 




Для Мосгорсуда, Роскомнадзора и рекламодателей:: mosgorsud-torrent[собачка]yandex.ru
cron