Торрент файл
скачать торрент магнет ссылка Добавлен: 11 дек 2011, 00:56
Размер: 475.91 МБ
Сидеров: 13
Личеров: 9
Автор

СообщениеДобавлено: 11 дек 2011, 00:56 

Не в сети
Супермодератор
Аватара пользователя
Дата регистрации:
22 май 2010, 11:03
Возраст: 33
Спасибо: 7730 / 13
Сообщения: 49846
Выжить любой ценой (7 сезон, серия 1 из 6) / Discovery. Ultimate Survival. Man vs Wild


Перевод: Профессиональный (одноголосый), cубтитры: отсутствуют
Формат: SATRip, MKV, H.264, MP3
Страна: США, Великобритания
Режиссер: Майк Уорнер, Скотт Танкард
Жанр: документальный
Продолжительность: 00:44:00
Год выпуска: 2011
В ролях: Беар Гриллс
Описание:
Беар служил в спецназе S.A.S является экспертом по выживанию в экстремальных природных условиях. В этих фильмах он покажет как надо выживать, какие опасности таит в себе природа. Беар покажет навыки выживания самым экстремальным образом. Его выкидывают из вертолета с высоты 2000 метров и кроме парашюта у него есть при себе только нож и огниво. Он должен найти пищу, воду, направление движения, укрытие. На пути Беара будут вставать: скорпионы, каракурты, кобры, носороги, пираньи, акулы, слоны, медведи, львы, а также нестерпимый холод и адская жара.




Видео: 704x400, 25.000 fps, AVC (x264), , ~1375 Kbps, 0.195 Bit/Pixel
Аудио: 48 kHz, MPEG Layer 3, 2 ch, ~128.00 kbps avg
Доп. информация:
Серия 1. Исландия. Люди против природы. Джек Джилленхал
Беар доводит до грани американского актера Джека Джилленхала: он потрошит овец, пересекает исландские вулканы и спускается в бездонные пропасти при граде и ветре в 160 км/ч.


General
Unique ID: 232381177694734850374471619103623741570 (0xAED2FCA314DCBEBE89C9C64FFE200082)
Complete name: Ultimate.Survival.S07.E01.Men.VS.Wild.Jake.Gyllenhaal.rus.Release.From.Ametist.mkv
Format: Matroska
Format version: Version 2
File size: 476 MiB
Duration: 44mn 16s
Overall bit rate: 1 503 Kbps
Encoded date: UTC 2011-10-18 16:37:54
Writing application: mkvmerge v3.1.0 ('Happy up here') built on Jan 19 2010 12:09:24
Writing library: libebml v0.7.9 + libmatroska v0.8.1

Video
ID: 1
Format: AVC
Format/Info: Advanced Video Codec
Format profile:
Format settings, CABAC: Yes
Format settings, ReFrames: 5 frames
Codec ID: V_MPEG4/ISO/AVC
Duration: 44mn 16s
Bit rate: 1 374 Kbps
Width: 704 pixels
Height: 400 pixels
Display aspect ratio: 16:9
Frame rate: 25.000 fps
Color space: YUV
Chroma subsampling: 4:2:0
Bit depth: 8 bits
Scan type: Progressive
Bits/(Pixel*Frame): 0.195
Stream size: 426 MiB (89%)
Writing library: x264 core 84 r1416kGIT fcf70c2
Encoding settings: cabac=1 / ref=5 / deblock=0:0:0 / analyse=0x3:0x133 / me=hex / subme=7 / psy=1 / psy_rd=1.0:0.0 / mixed_ref=1 / me_range=16 / chroma_me=1 / trellis=1 / 8x8dct=1 / cqm=0 / deadzone=21,11 / fast_pskip=0 / chroma_qp_offset=-2 / threads=6 / sliced_threads=0 / nr=0 / decimate=0 / mbaff=0 / constrained_intra=0 / bframes=5 / b_pyramid=0 / b_adapt=0 / b_bias=0 / direct=1 / wpredb=1 / wpredp=2 / keyint=250 / keyint_min=25 / scenecut=40 / intra_refresh=0 / rc_lookahead=50 / rc=2pass / mbtree=1 / bitrate=1374 / ratetol=1.0 / qcomp=0.60 / qpmin=10 / qpmax=51 / qpstep=4 / cplxblur=20.0 / qblur=0.5 / ip_ratio=1.40 / aq=1:1.00

Audio
ID: 2
Format: MPEG Audio
Format version: Version 1
Format profile: Layer 3
Mode: Joint stereo
Mode extension: MS Stereo
Codec ID: A_MPEG/L3
Codec ID/Hint: MP3
Duration: 44mn 16s
Bit rate mode: Constant
Bit rate: 128 Kbps
Channel(s): 2 channels
Sampling rate: 48.0 KHz
Compression mode: Lossy
Stream size: 40.5 MiB (9%)
Writing library: LAME3.98r
Encoding settings: -m j -V 4 -q 2 -lowpass 17 -b 128









Поделиться:



Вернуться к началу
 Профиль Отправить личное сообщение  
 
   Похожие торренты   Автор   Торрент   Размер 
В этой теме нет новых непрочитанных сообщений. Животные-рекордсмены. Сорвиголовы / NAT GEO WILD. Ultimate Animal Countdown: Daredevils [документальный, 2012] SATRip, Avo

salma3

18 | 3

558.68 МБ

В этой теме нет новых непрочитанных сообщений. Discovery: Сканируя небо. Телескоп Discovery Channel / Discovery: Scanning the skies. The discovery channel telescope (Тони Бекон, Натан Хэндри) [2012, документальный, SATRip] AVO

salma3

0 | 1

379.98 МБ

В этой теме нет новых непрочитанных сообщений. Discovery. Звездное выживание с Беаром Гриллсом / Running Wild Bear Grylls [03x01] [природа, путешествия, экстрим, 2016] HDTVRip, Dvo

salma3

25 | 35

1 ГБ

В этой теме нет новых непрочитанных сообщений. Как устроена Вселенная (Сезон 2: 8 серий из 8 ) / How the Universe Works (Адам Уорнер) [2012, документальный, LowHDTVRip] VO

salma3

1 | 5

4.97 ГБ

В этой теме нет новых непрочитанных сообщений. Охотники за складами / Discovery Channel: Storage Hunters [01-42] (Discovery Channel) [2011-2013, Документальный, познавательный, SATRip] dvo

salma3

0 | 0

10.27 ГБ

В этой теме нет новых непрочитанных сообщений. Discovery. Почему? Вопросы мироздания: Марсианские хроники / Discovery. Curiosity: Mars Landing (Джоанн Клегг) [2012, документальный, SATRip]

salma3

0 | 1

388.57 МБ

В этой теме нет новых непрочитанных сообщений. Выжить После [Сезон 2 / Cерия 01-12 из 12] [триллер, 2016] SATRip

Dracon

284 | 142

7.94 ГБ


Начать новую тему Ответить на тему  [ 1 сообщение ] 




Для Мосгорсуда, Роскомнадзора и рекламодателей:: mosgorsud-torrent[собачка]yandex.ru
cron