Торрент файл
скачать торрент магнет ссылка Добавлен: 11 дек 2011, 00:52
Размер: 1.39 ГБ
Сидеров: 5
Личеров: 7
Автор

СообщениеДобавлено: 11 дек 2011, 00:52 

Не в сети
Супермодератор
Аватара пользователя
Дата регистрации:
22 май 2010, 11:03
Возраст: 33
Спасибо: 7741 / 13
Сообщения: 49837
Коллекция "Золотой глобус". Фильм 14 - Непал. Горная страна. Родина Будды


Перевод: Профессиональный (полное дублирование), cубтитры: отсутствуют
Формат: DVDRip-AVC, MKV, H.264, AC3

Страна: Германия
Режиссер: Майкл Линдер
Жанр: путешествия и туризм

Продолжительность: 01:51:00
Год выпуска: 2008

Описание: Наше путешествие по Непалу начинается в столице государства - Катманду. Смешавшись с толпой, мы откроем для себя прекрасные дворцы и храмы. В одном из них живет настоящая богиня - девочка по имени Кумари. Неподалеку от города возвышается величественная пагода Боднатх, одно из священных мест буддизма. По дороге к храму Сваямбунатх нас сопровождают звон раскачиваемых кадил и стук молоточков резчиков, которые продают тут свои мандалы. Свидетельством пылкой религиозности непальцев являются построенные вдали от столицы и других больших городов многочисленные храмы, рассеянные по живописной долине Катманду. Яркие впечатления оставят участие в церемонии почитания жаждущей крови богини Кали и встреча с бородатым садху. Однако настоящее приключения начнется в национальном парке Читван - на спине слонихи мы отправимся на уникальные сафари. Самым долгожданным приключением станет многодневный поход в Гималаи. Достаточно трудный подъем будет вознагражден незабываемыми пейзажами - видами Эвереста, Лхоцзе и Аннапури.

Видео: 720x544 (1.32:1), 25.000 fps, AVC(х264), , ~ 1400 Kbps, 0.143 bit/pixel
Аудио #1: Русский 48 kHz, AС3 Dolby Digital, 2 ch (L, R), ~ 192 kbps avg Профессиональный (полное дублирование)
Аудио #2: Украинский 48 kHz, AС3 Dolby Digital, 2 ch (L, R), ~ 192 kbps avg Профессиональный (полное дублирование)

Релиз группа: Автор:


Формат: Matroska
Версия формата: Version 2
Размер файла: 1,39 Гбайт
Продолжительность: 1 ч. 51 м.
Общий поток: 1782 Кбит/сек
Программа кодирования: XviD4PSP 6.0 / 53.6.0
Библиотека кодирования: XviD4PSP 6.0 / 53.6.0

Видео
Идентификатор: 1
Формат: AVC
Формат/Информация: Advanced Video Codec
Профиль формата:
Параметр CABAC формата: Да
Параметр ReFrames формата: 3 кадра
Идентификатор кодека: V_MPEG4/ISO/AVC
Продолжительность: 1 ч. 51 м.
Битрейт: 1400 Кбит/сек
Ширина: 720 пикс.
Высота: 544 пикс.
Соотношение сторон: 4:3
Режим частоты кадров: Переменный
Частота кадров: 25,000 кадр/сек
Цветовое пространство: YUV
Подвыборка цветности: 4:2:0
Битовая глубина: 8 бит
Тип развёртки: MBAFF
Бит/(Пиксели*Кадры): 0.143
Размер потока: 1,06 Гбайт (76%)
Библиотека кодирования: x264 core 116 r2019M 9cc407d
Настройки программы: cabac=1 / ref=3 / deblock=1:-1:-1 / analyse=0x3:0x133 / me=hex / subme=7 / psy=1 / psy_rd=1.00:0.15 / mixed_ref=1 / me_range=16 / chroma_me=1 / trellis=1 / 8x8dct=1 / cqm=0 / deadzone=21,11 / fast_pskip=1 / chroma_qp_offset=-3 / threads=6 / sliced_threads=0 / nr=0 / decimate=1 / interlaced=bff / bluray_compat=0 / constrained_intra=0 / bframes=3 / b_pyramid=1 / b_adapt=2 / b_bias=0 / direct=3 / weightb=1 / open_gop=0 / weightp=0 / keyint=250 / keyint_min=25 / scenecut=40 / intra_refresh=0 / rc_lookahead=40 / rc=abr / mbtree=1 / bitrate=1400 / ratetol=1.0 / qcomp=0.60 / qpmin=10 / qpmax=51 / qpstep=4 / ip_ratio=1.40 / aq=1:1.00

Аудио #1
Идентификатор: 2
Формат: AC-3
Формат/Информация: Audio Coding 3
Расширение режима: CM (complete main)
Идентификатор кодека: A_AC3
Продолжительность: 1 ч. 51 м.
Вид битрейта: Постоянный
Битрейт: 192 Кбит/сек
Каналы: 2 канала
Расположение каналов: Front: L R
Частота: 48,0 КГц
Битовая глубина: 16 бит
Метод сжатия: С потерями
Размер потока: 154 Мбайт (11%)
Язык: Russian

Аудио #2
Идентификатор: 3
Формат: AC-3
Формат/Информация: Audio Coding 3
Расширение режима: CM (complete main)
Идентификатор кодека: A_AC3
Продолжительность: 1 ч. 51 м.
Вид битрейта: Постоянный
Битрейт: 192 Кбит/сек
Каналы: 2 канала
Расположение каналов: Front: L R
Частота: 48,0 КГц
Битовая глубина: 16 бит
Метод сжатия: С потерями
Размер потока: 154 Мбайт (11%)
Язык: Ukrainian













Поделиться:



Вернуться к началу
 Профиль Отправить личное сообщение  
 
   Похожие торренты   Автор   Торрент   Размер 
В этой теме нет новых непрочитанных сообщений. Мир Наизнанку. Непал / Світ навиворіт. Непал [S08] (Трэвел-Шоу, Документальный, Путешествие, 2016) WEB-DL 1080p

marya111

25 | 66

21.54 ГБ

В этой теме нет новых непрочитанных сообщений. Мир Наизнанку. Непал / Світ навиворіт. Непал [08x01-10 из 15] (Трэвел-Шоу, Документальный, Путешествие, 2016) WEB-DL 1080p

marya111

15 | 10

14.28 ГБ

В этой теме нет новых непрочитанных сообщений. Мир Наизнанку. Непал / Світ навиворіт. Непал [08x01-14 из 15] (Трэвел-Шоу, Документальный, Путешествие, 2016) WEB-DL 1080p

marya111

13 | 36

19.88 ГБ

В этой теме нет новых непрочитанных сообщений. Путешествия Гулливера / Gulliver's Travels [Фэнтези, приключения, семейный, 1996] DVDRip, Mvo

salma3

39 | 13

2.19 ГБ

В этой теме нет новых непрочитанных сообщений. Родина / Homeland [05х01-12 из 12] (Майкл Куэста, Лесли Линка Глаттер, Кларк Джонсон) [2015, триллер, драма, детектив, WEB-DL 1080p | Amedia]

Dracon

131 | 214

23.87 ГБ

В этой теме нет новых непрочитанных сообщений. Родина / Homeland [05x01-06 из 12] (Лесли Линка Глаттер, Майкл Куэста, Дэниэл Эттиэс) [2015, триллер, драма, детектив, WEB-DLRip | HamsterStudio]

Nickolas3435

47 | 164

2.93 ГБ

В этой теме нет новых непрочитанных сообщений. Родина / Homeland [05х01-12 из 12] (Кларк Джонсон, Майкл Куэста, Дэниэл Эттиэс) [2015, Детектив, Драма, Криминал, Триллер, WEB-DL 720p | Amedia]

Dracon

14 | 14

20.45 ГБ


Начать новую тему Ответить на тему  [ 1 сообщение ] 




Для Мосгорсуда, Роскомнадзора и рекламодателей:: mosgorsud-torrent[собачка]yandex.ru
cron