Торрент файл
скачать торрент магнет ссылка Добавлен: 11 дек 2011, 00:51
Размер: 1.4 ГБ
Сидеров: 47
Личеров: 8
Автор

СообщениеДобавлено: 11 дек 2011, 00:51 

Не в сети
Супермодератор
Аватара пользователя
Дата регистрации:
22 май 2010, 11:03
Возраст: 33
Спасибо: 7741 / 13
Сообщения: 49837
Коллекция "Золотой глобус". Фильм 17 - Венеция. Город на воде. На гондоле по Большому каналу


Перевод: Профессиональный (полное дублирование), cубтитры: отсутствуют
Формат: DVDRip-AVC, MKV, H.264, AC3

Страна: Германия
Режиссер: Майкл Линдер
Жанр: путешествия и туризм

Продолжительность: 01:27:21
Год выпуска: 2008

Описание: Знакомство с городом на воде мы начнем с Кампанилы собора Святого Марка, откуда открывается незабываемый вид на Большой канал. Путешествие по Венеции продолжим на известной площади Святого Марка, где посетим кафедральный собор и прекрасный Дворец дожей. Одним из самых ярких моментов нашей прогулки будет рейс на водном трамвае по Большому каналу, особенно, когда мы будем проезжать под мостом Риальто. Скользящие мимо дворцы помнят известнейшего жителя Венеции — соблазнителя и авантюриста Джакомо Казанову. Мы увидим и менее посещаемые уголки города: Кан-нареджо, где находилось первое в мире еврейское гетто; Арсенал — в свое время крупнейшую судоверфь мира; Дорсодуро с внушительным собором Санта-Мария делла Салюте. Нам предстоит посетить также окрестные острова: Сан-Микеле — некрополь Венеции; Мурано, славящийся прекрасными изделиями из стекла; романтичный Торчелло и Бурано с разноцветными домами. Последний этап нашего кинопутешествия—участие в исторической процессии, приуроченной к Исторической регате на Большом канале.

Видео: 720x544 (1.32:1), 25.000 fps, AVC(х264), , ~ 1900 Kbps, 0.194 bit/pixel
Аудио #1: Русский 48 kHz, AС3 Dolby Digital, 2 ch (L, R), ~ 192 kbps avg Профессиональный (полное дублирование)
Аудио #2: Украинский 48 kHz, AС3 Dolby Digital, 2 ch (L, R), ~ 192 kbps avg Профессиональный (полное дублирование)

Релиз группа: Автор:


Формат: Matroska
Версия формата: Version 2
Размер файла: 1,40 Гбайт
Продолжительность: 1 ч. 27 м.
Общий поток: 2300 Кбит/сек
Программа кодирования: XviD4PSP 6.0 / 53.6.0
Библиотека кодирования: XviD4PSP 6.0 / 53.6.0

Видео
Идентификатор: 1
Формат: AVC
Формат/Информация: Advanced Video Codec
Профиль формата:
Параметр CABAC формата: Да
Параметр ReFrames формата: 3 кадра
Идентификатор кодека: V_MPEG4/ISO/AVC
Продолжительность: 1 ч. 27 м.
Битрейт: 1900 Кбит/сек
Ширина: 720 пикс.
Высота: 544 пикс.
Соотношение сторон: 4:3
Режим частоты кадров: Переменный
Частота кадров: 25,000 кадр/сек
Цветовое пространство: YUV
Подвыборка цветности: 4:2:0
Битовая глубина: 8 бит
Тип развёртки: MBAFF
Бит/(Пиксели*Кадры): 0.194
Размер потока: 1,14 Гбайт (81%)
Библиотека кодирования: x264 core 116 r2019M 9cc407d
Настройки программы: cabac=1 / ref=3 / deblock=1:-1:-1 / analyse=0x3:0x133 / me=hex / subme=7 / psy=1 / psy_rd=1.00:0.15 / mixed_ref=1 / me_range=16 / chroma_me=1 / trellis=1 / 8x8dct=1 / cqm=0 / deadzone=21,11 / fast_pskip=1 / chroma_qp_offset=-3 / threads=6 / sliced_threads=0 / nr=0 / decimate=1 / interlaced=tff / bluray_compat=0 / constrained_intra=0 / bframes=3 / b_pyramid=1 / b_adapt=2 / b_bias=0 / direct=3 / weightb=1 / open_gop=0 / weightp=0 / keyint=250 / keyint_min=25 / scenecut=40 / intra_refresh=0 / rc_lookahead=40 / rc=abr / mbtree=1 / bitrate=1900 / ratetol=1.0 / qcomp=0.60 / qpmin=10 / qpmax=51 / qpstep=4 / ip_ratio=1.40 / aq=1:1.00

Аудио #1
Идентификатор: 2
Формат: AC-3
Формат/Информация: Audio Coding 3
Расширение режима: CM (complete main)
Идентификатор кодека: A_AC3
Продолжительность: 1 ч. 27 м.
Вид битрейта: Постоянный
Битрейт: 192 Кбит/сек
Каналы: 2 канала
Расположение каналов: Front: L R
Частота: 48,0 КГц
Битовая глубина: 16 бит
Метод сжатия: С потерями
Размер потока: 120 Мбайт (8%)
Язык: Russian

Аудио #2
Идентификатор: 3
Формат: AC-3
Формат/Информация: Audio Coding 3
Расширение режима: CM (complete main)
Идентификатор кодека: A_AC3
Продолжительность: 1 ч. 27 м.
Вид битрейта: Постоянный
Битрейт: 192 Кбит/сек
Каналы: 2 канала
Расположение каналов: Front: L R
Частота: 48,0 КГц
Битовая глубина: 16 бит
Метод сжатия: С потерями
Размер потока: 120 Мбайт (8%)
Язык: Ukrainian













Поделиться:



Вернуться к началу
 Профиль Отправить личное сообщение  
 
   Похожие торренты   Автор   Торрент   Размер 
В этой теме нет новых непрочитанных сообщений. Путешествия Гулливера / Gulliver's Travels [Фэнтези, приключения, семейный, 1996] DVDRip, Mvo

salma3

39 | 13

2.19 ГБ

В этой теме нет новых непрочитанных сообщений. Орёл и Решка. Рай и Ад [S13] ( Реалити-шоу, путешествия, познавательный, 2017) WEBRip 720p от New-Team

marya111

139 | 48

2.43 ГБ

В этой теме нет новых непрочитанных сообщений. Непутевые заметки с Дмитрием Крыловым [01-03] ( Документальный, познавательный, путешествие, туризм, 2017) HDTVRip от Files-х

marya111

15 | 3

947.26 МБ

В этой теме нет новых непрочитанных сообщений. Непутевые заметки с Дмитрием Крыловым [01-03] (Документальный, познавательный, путешествие, туризм, 2017) HDTVRip от Files-х

marya111

32 | 5

567.35 МБ

В этой теме нет новых непрочитанных сообщений. Любовь к большому городу / Chronically Metropolitan [драма, комедия, 2016] WEB-DLRip, Mvo

salma3

120 | 25

1.36 ГБ

В этой теме нет новых непрочитанных сообщений. National Geographic. Анаконда. Тихий убийца / Anaconda. Silent killer [Документальный, путешествия, природа, 2014] HDTV 1080i, Dub

salma3

84 | 54

3.17 ГБ

В этой теме нет новых непрочитанных сообщений. Discovery. Звездное выживание с Беаром Гриллсом / Running Wild Bear Grylls [03x01] [природа, путешествия, экстрим, 2016] HDTVRip, Dvo

salma3

25 | 35

1 ГБ


Начать новую тему Ответить на тему  [ 1 сообщение ] 




Для Мосгорсуда, Роскомнадзора и рекламодателей:: mosgorsud-torrent[собачка]yandex.ru
cron