Торрент файл
скачать торрент магнет ссылка Добавлен: 11 дек 2011, 00:51
Размер: 1.39 ГБ
Сидеров: 20
Личеров: 7
Автор

СообщениеДобавлено: 11 дек 2011, 00:51 

Не в сети
Супермодератор
Аватара пользователя
Дата регистрации:
22 май 2010, 11:03
Возраст: 33
Спасибо: 7741 / 13
Сообщения: 49837
Коллекция "Золотой глобус". Фильм 19 - Нью-Йорк. Символ свободы. Самый известный город США


Перевод: Профессиональный (полное дублирование), cубтитры: отсутствуют
Формат: DVDRip-AVC, MKV, H.264, AC3

Страна: Германия
Режиссер: Майкл Линдер
Жанр: путешествия и туризм

Продолжительность: 01:31:21
Год выпуска: 2008

Описание: Нью-Йорк — это город-символ. Здесь стала явью «американская мечта», здесь разыгрывались трагедии и фарсы американской истории. В нашем кинопутешествии мы увидим Эмпайр-Стейт-Билдинг, Крайслер-Билдинг и другие памятники современного архитектурного искусства — Бруклинский мост, Статую Свободы и здания с искусными чугунными фасадами в Сохо. Осмотрим Метрополитен-музей и Музей современного искусства Соломона Гуггенхайма. Посещение Нью-Йорка— это обязательно покупки на Пятой авеню, прогулка по Центральному парку, обед в одном из прекрасных ресторанов, вечер в Метрополитен-опера и ночной коктейль в джаз-клубе. От Гарлема до Чайна-тауна, от Маленькой Италии до Вестсайда, от Бруклина до Челси — в Нью-Йорке вы не найдете такого места, где можно заскучать.

Видео: 720x544 (1.32:1), 25.000 fps, AVC(х264), , ~ 2000 Kbps, 0.204 bit/pixel
Аудио #1: Русский 48 kHz, AС3 Dolby Digital, 2 ch (L, R), ~ 192 kbps avg Профессиональный (полное дублирование)
Аудио #2: Украинский 48 kHz, AС3 Dolby Digital, 2 ch (L, R), ~ 192 kbps avg Профессиональный (полное дублирование)

Релиз группа: Автор:


Формат: Matroska
Версия формата: Version 2
Размер файла: 1,39 Гбайт
Продолжительность: 1 ч. 31 м.
Общий поток: 2175 Кбит/сек
Программа кодирования: XviD4PSP 6.0 / 53.6.0
Библиотека кодирования: XviD4PSP 6.0 / 53.6.0

Видео
Идентификатор: 1
Формат: AVC
Формат/Информация: Advanced Video Codec
Профиль формата:
Параметр CABAC формата: Да
Параметр ReFrames формата: 3 кадра
Идентификатор кодека: V_MPEG4/ISO/AVC
Продолжительность: 1 ч. 31 м.
Битрейт: 1800 Кбит/сек
Ширина: 720 пикс.
Высота: 544 пикс.
Соотношение сторон: 4:3
Режим частоты кадров: Переменный
Частота кадров: 25,000 кадр/сек
Цветовое пространство: YUV
Подвыборка цветности: 4:2:0
Битовая глубина: 8 бит
Тип развёртки: MBAFF
Бит/(Пиксели*Кадры): 0.184
Размер потока: 1,12 Гбайт (80%)
Библиотека кодирования: x264 core 116 r2019M 9cc407d
Настройки программы: cabac=1 / ref=3 / deblock=1:-1:-1 / analyse=0x3:0x133 / me=hex / subme=7 / psy=1 / psy_rd=1.00:0.15 / mixed_ref=1 / me_range=16 / chroma_me=1 / trellis=1 / 8x8dct=1 / cqm=0 / deadzone=21,11 / fast_pskip=1 / chroma_qp_offset=-3 / threads=6 / sliced_threads=0 / nr=0 / decimate=1 / interlaced=bff / bluray_compat=0 / constrained_intra=0 / bframes=3 / b_pyramid=1 / b_adapt=2 / b_bias=0 / direct=3 / weightb=1 / open_gop=0 / weightp=0 / keyint=250 / keyint_min=25 / scenecut=40 / intra_refresh=0 / rc_lookahead=40 / rc=abr / mbtree=1 / bitrate=1800 / ratetol=1.0 / qcomp=0.60 / qpmin=10 / qpmax=51 / qpstep=4 / ip_ratio=1.40 / aq=1:1.00

Аудио #1
Идентификатор: 2
Формат: AC-3
Формат/Информация: Audio Coding 3
Расширение режима: CM (complete main)
Идентификатор кодека: A_AC3
Продолжительность: 1 ч. 31 м.
Вид битрейта: Постоянный
Битрейт: 192 Кбит/сек
Каналы: 2 канала
Расположение каналов: Front: L R
Частота: 48,0 КГц
Битовая глубина: 16 бит
Метод сжатия: С потерями
Размер потока: 125 Мбайт (9%)
Язык: Russian

Аудио #2
Идентификатор: 3
Формат: AC-3
Формат/Информация: Audio Coding 3
Расширение режима: CM (complete main)
Идентификатор кодека: A_AC3
Продолжительность: 1 ч. 31 м.
Вид битрейта: Постоянный
Битрейт: 192 Кбит/сек
Каналы: 2 канала
Расположение каналов: Front: L R
Частота: 48,0 КГц
Битовая глубина: 16 бит
Метод сжатия: С потерями
Размер потока: 125 Мбайт (9%)
Язык: Ukrainian















Поделиться:



Вернуться к началу
 Профиль Отправить личное сообщение  
 
   Похожие торренты   Автор   Торрент   Размер 
В этой теме нет новых непрочитанных сообщений. Нью-Йорк, Нью-Йорк / Synecdoche, New York [Комедия, драма, 2008] BDRip 720p, Mvo+Sub

salma3

71 | 6

4.36 ГБ

В этой теме нет новых непрочитанных сообщений. Нью-Йорк, Нью-Йорк / Synecdoche, New York [комедия, драма, 2008] HDRip, Mvo

salma3

23 | 8

1.85 ГБ

В этой теме нет новых непрочитанных сообщений. Путешествия Гулливера / Gulliver's Travels [Фэнтези, приключения, семейный, 1996] DVDRip, Mvo

salma3

39 | 13

2.19 ГБ

В этой теме нет новых непрочитанных сообщений. Орёл и Решка. Рай и Ад [S13] ( Реалити-шоу, путешествия, познавательный, 2017) WEBRip 720p от New-Team

marya111

139 | 48

2.43 ГБ

В этой теме нет новых непрочитанных сообщений. Непутевые заметки с Дмитрием Крыловым [01-03] (Документальный, познавательный, путешествие, туризм, 2017) HDTVRip от Files-х

marya111

32 | 5

567.35 МБ

В этой теме нет новых непрочитанных сообщений. Непутевые заметки с Дмитрием Крыловым [01-03] ( Документальный, познавательный, путешествие, туризм, 2017) HDTVRip от Files-х

marya111

15 | 3

947.26 МБ

В этой теме нет новых непрочитанных сообщений. National Geographic. Анаконда. Тихий убийца / Anaconda. Silent killer [Документальный, путешествия, природа, 2014] HDTV 1080i, Dub

salma3

84 | 54

3.17 ГБ


Начать новую тему Ответить на тему  [ 1 сообщение ] 




Для Мосгорсуда, Роскомнадзора и рекламодателей:: mosgorsud-torrent[собачка]yandex.ru
cron