Торрент файл
скачать торрент магнет ссылка Добавлен: 11 дек 2011, 00:49
Размер: 627.14 МБ
Сидеров: 15
Личеров: 8
Автор

СообщениеДобавлено: 11 дек 2011, 00:49 

Не в сети
Супермодератор
Аватара пользователя
Дата регистрации:
22 май 2010, 11:03
Возраст: 33
Спасибо: 7730 / 13
Сообщения: 49846
Выжить любой ценой (7 сезон, серия 5 из 6) / Discovery. Ultimate Survival. Man vs Wild


Перевод: Профессиональный (одноголосый), cубтитры: отсутствуют
Формат: SATRip, MP4, H.264, AAC
Страна: США, Великобритания
Режиссер: Майк Уорнер, Скотт Танкард
Жанр: Документальный
Продолжительность: 00:44:47
Год выпуска: 2011
В ролях: Беар Гриллс
Описание: Беар служил в спецназе S.A.S является экспертом по выживанию в экстремальных природных условиях. В этих фильмах он покажет как надо выживать, какие опасности таит в себе природа. Беар покажет навыки выживания самым экстремальным образом. Его выкидывают из вертолета с высоты 2000 метров и кроме парашюта у него есть при себе только нож и огниво. Он должен найти пищу, воду, направление движения, укрытие. На пути Беара будут вставать: скорпионы, каракурты, кобры, носороги, пираньи, акулы, слоны, медведи, львы, а также нестерпимый холод и адская жара.

Серия 5. Новая Зеландия. Земля Маори
Беар должен переходить через ревущую реку по стволу дерева, спускаться по водопаду и пробираться среди действующих вулканов - в Новой Зеландии он оказался в очень сложных условиях.




Видео: 1280x720 (16:9), 25 fps, AVC (x264) ~1825 Kbps 0.079 bit/pixel,
Аудио: 44.1 KHz, AAC 2 ch, ~128 Kbps avg

General
Complete name: Ultimate Survival 7 5.mp4
Format: MPEG-4
Format profile: Base Media
Codec ID: isom
File size: 627 MiB
Duration: 44mn 47s
Overall bit rate: 1 957 Kbps
Encoded date: UTC 1970-01-01 00:00:00
Tagged date: UTC 1970-01-01 00:00:00
Writing application: Lavf52.40.0

Video
ID: 1
Format: AVC
Format/Info: Advanced Video Codec
Format profile:
Format settings, CABAC: Yes
Format settings, ReFrames: 3 frames
Codec ID: avc1
Codec ID/Info: Advanced Video Coding
Duration: 44mn 47s
Bit rate mode: Variable
Bit rate: 1 825 Kbps
Nominal bit rate: 1 800 Kbps
Width: 1 280 pixels
Height: 720 pixels
Display aspect ratio: 16:9
Frame rate mode: Constant
Frame rate: 25.000 fps
Resolution: 24 bits
Colorimetry: 4:2:0
Scan type: Progressive
Bits/(Pixel*Frame): 0.079
Stream size: 585 MiB (93%)
Writing library: x264 core 79
Encoding settings: cabac=1 / ref=3 / deblock=1:0:0 / analyse=0x3:0x113 / me=hex / subme=7 / psy=1 / psy_rd=1.0:0.0 / mixed_ref=1 / me_range=16 / chroma_me=1 / trellis=1 / 8x8dct=1 / cqm=0 / deadzone=21,11 / chroma_qp_offset=-2 / threads=24 / nr=0 / decimate=1 / mbaff=0 / constrained_intra=0 / bframes=3 / b_pyramid=0 / b_adapt=1 / b_bias=0 / direct=1 / wpredb=32 / wpredp=2 / keyint=250 / keyint_min=25 / scenecut=40 / rc_lookahead=40 / rc=abr / mbtree=1 / bitrate=1800 / ratetol=2.2 / qcomp=0.60 / qpmin=10 / qpmax=51 / qpstep=4 / ip_ratio=1.41 / aq=1:1.00
Encoded date: UTC 1970-01-01 00:00:00
Tagged date: UTC 1970-01-01 00:00:00

Audio
ID: 2
Format: AAC
Format/Info: Advanced Audio Codec
Format version: Version 4
Format profile: LC
Format settings, SBR: No
Codec ID: 40
Duration: 44mn 47s
Bit rate mode: Variable
Bit rate: 128 Kbps
Channel(s): 2 channels
Channel positions: L R
Sampling rate: 44.1 KHz
Resolution: 16 bits
Stream size: 41.0 MiB (7%)
Encoded date: UTC 1970-01-01 00:00:00
Tagged date: UTC 1970-01-01 00:00:00










Поделиться:



Вернуться к началу
 Профиль Отправить личное сообщение  
 
   Похожие торренты   Автор   Торрент   Размер 
В этой теме нет новых непрочитанных сообщений. Животные-рекордсмены. Сорвиголовы / NAT GEO WILD. Ultimate Animal Countdown: Daredevils [документальный, 2012] SATRip, Avo

salma3

18 | 3

558.68 МБ

В этой теме нет новых непрочитанных сообщений. Discovery: Сканируя небо. Телескоп Discovery Channel / Discovery: Scanning the skies. The discovery channel telescope (Тони Бекон, Натан Хэндри) [2012, документальный, SATRip] AVO

salma3

0 | 1

379.98 МБ

В этой теме нет новых непрочитанных сообщений. Discovery. Звездное выживание с Беаром Гриллсом / Running Wild Bear Grylls [03x01] [природа, путешествия, экстрим, 2016] HDTVRip, Dvo

salma3

25 | 35

1 ГБ

В этой теме нет новых непрочитанных сообщений. Как устроена Вселенная (Сезон 2: 8 серий из 8 ) / How the Universe Works (Адам Уорнер) [2012, документальный, LowHDTVRip] VO

salma3

1 | 5

4.97 ГБ

В этой теме нет новых непрочитанных сообщений. Охотники за складами / Discovery Channel: Storage Hunters [01-42] (Discovery Channel) [2011-2013, Документальный, познавательный, SATRip] dvo

salma3

0 | 0

10.27 ГБ

В этой теме нет новых непрочитанных сообщений. Discovery. Почему? Вопросы мироздания: Марсианские хроники / Discovery. Curiosity: Mars Landing (Джоанн Клегг) [2012, документальный, SATRip]

salma3

0 | 1

388.57 МБ

В этой теме нет новых непрочитанных сообщений. Выжить После [Сезон 2 / Cерия 01-12 из 12] [триллер, 2016] SATRip

Dracon

284 | 142

7.94 ГБ


Начать новую тему Ответить на тему  [ 1 сообщение ] 




Для Мосгорсуда, Роскомнадзора и рекламодателей:: mosgorsud-torrent[собачка]yandex.ru
cron