Торрент файл
скачать торрент магнет ссылка Добавлен: 11 дек 2011, 00:46
Размер: 4.97 ГБ
Сидеров: 4
Личеров: 7
Автор

СообщениеДобавлено: 11 дек 2011, 00:46 

Не в сети
Супермодератор
Аватара пользователя
Дата регистрации:
22 май 2010, 11:03
Возраст: 33
Спасибо: 7741 / 13
Сообщения: 49837
Глазами пилота (5 серий) / PilotsEYE + NORTHPOLE - Special flight




Перевод: Профессиональный (двухголосый), cубтитры: отсутствуют
Формат: TVRip, AVI, H264, MP3
Страна: Германия
Режиссер: Томас Айгнер
Жанр: документальный
Продолжительность: 5 х ~ 01:20:00
Год выпуска: 2007-2010

Описание: Дюссельдорф ... раннее утро. Капитан Джо Мозер и его напарник Саша Мертенс готовятся к полету на Северный полюс и обратно длительностью в 6 часов. Вместе с ними летят 300 пассажиров, которые купили билеты в этот круиз. Они смогут лицезреть полет не только воочию, но и как видео из кабины пилотов. После взлета по ВПП 05 Right, самолет движется в направлении Гамбурга, Дании и Швеции, к острову Шпицберген. Легкий снегопад и туман скрывают поверхность острова, но в последний момент облачность рассеивается и перед глазами предстает панорама острова с фьордами и ледяными глыбами айсбергов...

Видео: 766x576 (4:3), 25 fps, AVC (H264). , ~1247 kbps avg, 0.13 bit/pixel
Аудио: 48 kHz, MPEG Layer 3, 2 ch ~128 kbps avg

Доп. информация:
Хочется оказаться в кабине пилота? Тогда смотри это увлекательное видео!


Общее
Полное имя: D:\5d-utorent\Glazami_pilota[tfile.ru]\Полет на Северный Полюс(глазами пилота).avi
Формат: AVI
Формат/Информация: Audio Video Interleave
Размер файла: 1022 Мбайт
Продолжительность: 1 ч. 28 м.
Режим общего битрейта: Переменный
Общий поток: 1610 Кбит/сек
Программа кодирования: Lavf51.12.1

Видео
Идентификатор: 0
Формат: AVC
Формат/Информация: Advanced Video Codec
Профиль формата:
Параметр CABAC формата: Нет
Параметр ReFrames формата: 1 кадр
Параметры GOP формата: M=1, N=12
Идентификатор кодека: H264
Продолжительность: 1 ч. 28 м.
Вид битрейта: Переменный
Битрейт: 1470 Кбит/сек
Максимальный битрейт: 2115 Кбит/сек
Ширина: 766 пикс.
Высота: 576 пикс.
Соотношение сторон: 4:3
Частота кадров: 25,000 кадр/сек
Частота кадров в оригинале: 24,000 кадр/сек
Цветовое пространство: YUV
Подвыборка цветности: 4:2:0
Битовая глубина: 8 бит
Тип развёртки: Прогрессивная
Бит/(Пиксели*Кадры): 0.133
Размер потока: 933 Мбайт (91%)

Аудио
Идентификатор: 1
Формат: MPEG Audio
Версия формата: Version 1
Профиль формата: Layer 3
Режим: Joint stereo
Расширение режима: MS Stereo
Идентификатор кодека: 55
Идентификатор кодека/Подсказка: MP3
Продолжительность: 1 ч. 28 м.
Вид битрейта: Постоянный
Битрейт: 128 Кбит/сек
Каналы: 2 канала
Частота: 44,1 КГц
Метод сжатия: С потерями
Размер потока: 81,3 Мбайт (8%)
Выравнивание: Соединение по промежуткам
Продолжительность промежутка: 26мс. (0,65 видеокадр)
Время предзагрузки промежутка: 26мс.



В этих сериях пилоты совершат увлекательные перелеты:
Вена-Барселона
Мюнхен-Санфранциско
Полет на Северный Полюс
Франкфурт-Сиетл
А также серия "Полёт без стресса" , в которой раскажут принципы полета самолета и многое другое,после этих знаний Вы перестаните боятся авиаперелета.












Поделиться:



Вернуться к началу
 Профиль Отправить личное сообщение  
 
   Похожие торренты   Автор   Торрент   Размер 
В этой теме нет новых непрочитанных сообщений. BBC: Глазами животных [3 из 3 ] / BBC: Animal Camera (ВВС) [2004, документальный, DVDRip] VO

salma3

1 | 3

2.05 ГБ

В этой теме нет новых непрочитанных сообщений. Чудо Рождества / Northpole [фэнтези, 2014] BDRip, Mvo

salma3

198 | 47

1.46 ГБ

В этой теме нет новых непрочитанных сообщений. [BitchesAbroad.com / PornDoePremium.com] Dominica Phoenix - Special Discount For a Special Girl [2016 г., All Sex, Hardcore, 1080p]

killerslava

7 | 4

3.12 ГБ

В этой теме нет новых непрочитанных сообщений. Северный полюс: Открыт на Рождество / Northpole: Open for Christmas [фэнтези, 2015] DVDRip, Dub

salma3

67 | 14

1.36 ГБ

В этой теме нет новых непрочитанных сообщений. [DOEPROJECTS.com / PornDoePremium.com] Angel Wicky – KINKY TUTOR – SPECIAL REWARD FOR A SPECIAL STUDENT [06.07.2018 г., All sex, Blowjob, 480p]

salma3

0 | 0

449.86 МБ

В этой теме нет новых непрочитанных сообщений. Титаник: 20 лет спустя с Джеймсом Кэмероном / National Geographic. Titanic: 20 Years Later with James Cameron (Томас С. Грэйн) [2017, документальный, IPTVRip] DUB

salma3

0 | 0

600.28 МБ

В этой теме нет новых непрочитанных сообщений. Непутевые заметки с Дмитрием Крыловым [01-03] ( Документальный, познавательный, путешествие, туризм, 2017) HDTVRip от Files-х

marya111

15 | 3

947.26 МБ


Начать новую тему Ответить на тему  [ 1 сообщение ] 




Для Мосгорсуда, Роскомнадзора и рекламодателей:: mosgorsud-torrent[собачка]yandex.ru
cron