Торрент файл
скачать торрент магнет ссылка Добавлен: 11 дек 2011, 00:46
Размер: 1.48 ГБ
Сидеров: 8
Личеров: 5
Автор

СообщениеДобавлено: 11 дек 2011, 00:46 

Не в сети
Супермодератор
Аватара пользователя
Дата регистрации:
22 май 2010, 11:03
Возраст: 33
Спасибо: 7741 / 13
Сообщения: 49837
Коллекция "Золотой глобус". Фильм 1. Национальные парки США (Часть 1)


Перевод: Профессиональный (полное дублирование), cубтитры: отсутствуют
Формат: DVDRip-AVC, MKV, H.264, AC3

Страна: Германия
Режиссер: Майкл Линдер
Жанр: путешествия и туризм

Продолжительность: 01:35:00
Год выпуска: 2008

Описание: Экскурсия по национальным паркам США подарит Вам незабываемые впечатления от встреч с дикой природой. На этом диске - 10 удивительнейших уголков Соединенных Штатов. Большой каньон - Пропасть глубиной 1800 метров, за миллионы лет прорезанная в неподатливом камне рекой Колорадо, - одно из самых величественных зрелищ, созданных природой. Скалы каньона меянют цвет в зависимости от сезона и времени суток. Каньон Брайс - Красные скалы, стоящие, подобно людям, в нишах, похожих на вазы, - так называли это ущелье индейцы паюты. Долина монументов - Фантастические пейзажи пустынной земли индейцев навахо давно стали символом Дикого Запада. Именно здесь был снят знаменитый вестерн "Дилижанс". Водохранилище Пауэлл - Огромное рукотворное озеро затопило без малого сотню каньонов. Теперь здесь центр водного сопрта и "видового" туризма. Арки - Неприветливый край скальных башен и арок был населен уже в каменном веке - здесь первобытные люди добывали халцедон. Большие Дымчатые горы - В этой стране вечных туманов саламандры и медведи барибалы чувствуют себя вполне комфортно. Эверглейдс - Тропические болота Флориды - вотчина крокодилов и аллигаторов. Роки-Маунтин - В Скалистых горах, на вершинах которых никогда не бывает лета, природа осталась нетронутой человеком. Остерегайтесь волков, пум, а особенно - злобных медведей гризли. Джошуа-Три - На границе двух пустынь в южной Калифорнии можно прогуляться по лесам коротколистной юкки и заглянуть в шахты, оставленные золотоискателями XIX века. Йосемитская долина - Гигантские водопады и гранитные скалы высотой полтора километра соседствуют с Марипосской рощей, где растут двухтысячелетние секвойя-дендроны

Видео: 720x528 (1.36:1), 25.000 fps, AVC(х264), , ~ 1700 Kbps, 0.179 bit/pixel
Аудио #1: Русский 48 kHz, AС3 Dolby Digital, 2 ch (L, R), ~ 256 kbps avg Профессиональный (полное дублирование)
Аудио #2: Украинский 48 kHz, AС3 Dolby Digital, 2 ch (L, R), ~ 256 kbps avg Профессиональный (полное дублирование)

Релиз группа: Автор:




Формат: Matroska
Версия формата: Version 2
Размер файла: 1,48 Гбайт
Продолжительность: 1 ч. 35 м.
Общий поток: 2214 Кбит/сек
Дата кодирования: UTC 2011-09-27 11:34:20
Программа кодирования: mkvmerge v4.0.0 ('The Stars were mine') сборка от Jun6 2010 16:18:42
Библиотека кодирования: libebml v1.0.0 + libmatroska v1.0.0

Видео
Идентификатор: 1
Формат: AVC
Формат/Информация: Advanced Video Codec
Профиль формата:
Параметр CABAC формата: Да
Параметр ReFrames формата: 4 кадра
Параметры GOP формата: M=1, N=61
Идентификатор кодека: V_MPEG4/ISO/AVC
Продолжительность: 1 ч. 35 м.
Битрейт: 1700 Кбит/сек
Ширина: 720 пикс.
Высота: 528 пикс.
Соотношение сторон: 4:3
Соотношение сторон в оригинале: 4:3
Частота кадров: 25,000 кадр/сек
Цветовое пространство: YUV
Подвыборка цветности: 4:2:0
Битовая глубина: 8 бит
Тип развёртки: Прогрессивная
Бит/(Пиксели*Кадры): 0.179
Размер потока: 1,11 Гбайт (75%)
Библиотека кодирования: x264 core 116 r2074 2641b9e
Настройки программы: cabac=1 / ref=3 / deblock=1:0:0 / analyse=0x3:0x113 / me=hex / subme=7 / psy=1 / psy_rd=1.00:0.00 / mixed_ref=1 / me_range=16 / chroma_me=1 / trellis=1 / 8x8dct=1 / cqm=0 / deadzone=21,11 / fast_pskip=1 / chroma_qp_offset=-2 / threads=3 / sliced_threads=0 / nr=0 / decimate=1 / interlaced=0 / bluray_compat=0 / constrained_intra=0 / bframes=3 / b_pyramid=2 / b_adapt=1 / b_bias=0 / direct=1 / weightb=1 / open_gop=0 / weightp=2 / keyint=250 / keyint_min=25 / scenecut=40 / intra_refresh=0 / rc_lookahead=40 / rc=2pass / mbtree=1 / bitrate=1700 / ratetol=1.0 / qcomp=0.60 / qpmin=0 / qpmax=69 / qpstep=4 / cplxblur=20.0 / qblur=0.5 / ip_ratio=1.40 / aq=1:1.00

Аудио #1
Идентификатор: 2
Формат: AC-3
Формат/Информация: Audio Coding 3
Расширение режима: CM (complete main)
Идентификатор кодека: A_AC3
Продолжительность: 1 ч. 35 м.
Вид битрейта: Постоянный
Битрейт: 256 Кбит/сек
Каналы: 2 канала
Расположение каналов: Front: L R
Частота: 48,0 КГц
Битовая глубина: 16 бит
Метод сжатия: С потерями
Размер потока: 176 Мбайт (12%)
Язык: Russian

Аудио #2
Идентификатор: 3
Формат: AC-3
Формат/Информация: Audio Coding 3
Расширение режима: CM (complete main)
Идентификатор кодека: A_AC3
Продолжительность: 1 ч. 35 м.
Вид битрейта: Постоянный
Битрейт: 256 Кбит/сек
Каналы: 2 канала
Расположение каналов: Front: L R
Частота: 48,0 КГц
Битовая глубина: 16 бит
Метод сжатия: С потерями
Размер потока: 176 Мбайт (12%)















Поделиться:



Вернуться к началу
 Профиль Отправить личное сообщение  
 
   Похожие торренты   Автор   Торрент   Размер 
В этой теме нет новых непрочитанных сообщений. Путешествия Гулливера / Gulliver's Travels [Фэнтези, приключения, семейный, 1996] DVDRip, Mvo

salma3

39 | 13

2.19 ГБ

В этой теме нет новых непрочитанных сообщений. Орёл и Решка. Рай и Ад [S13] ( Реалити-шоу, путешествия, познавательный, 2017) WEBRip 720p от New-Team

marya111

139 | 48

2.43 ГБ

В этой теме нет новых непрочитанных сообщений. Непутевые заметки с Дмитрием Крыловым [01-03] (Документальный, познавательный, путешествие, туризм, 2017) HDTVRip от Files-х

marya111

32 | 5

567.35 МБ

В этой теме нет новых непрочитанных сообщений. Непутевые заметки с Дмитрием Крыловым [01-03] ( Документальный, познавательный, путешествие, туризм, 2017) HDTVRip от Files-х

marya111

15 | 3

947.26 МБ

В этой теме нет новых непрочитанных сообщений. National Geographic. Анаконда. Тихий убийца / Anaconda. Silent killer [Документальный, путешествия, природа, 2014] HDTV 1080i, Dub

salma3

84 | 54

3.17 ГБ

В этой теме нет новых непрочитанных сообщений. Discovery. Звездное выживание с Беаром Гриллсом / Running Wild Bear Grylls [03x01] [природа, путешествия, экстрим, 2016] HDTVRip, Dvo

salma3

25 | 35

1 ГБ

В этой теме нет новых непрочитанных сообщений. National Geographic: Удивительные обитатели Тайваня / National Geographic: Taiwan's Amazing Creatures [2011, Документальный, флора, фауна, путешествия, SATRip] DUB

salma3

0 | 2

568.3 МБ


Начать новую тему Ответить на тему  [ 1 сообщение ] 




Для Мосгорсуда, Роскомнадзора и рекламодателей:: mosgorsud-torrent[собачка]yandex.ru
cron