Торрент файл
скачать торрент магнет ссылка Добавлен: 11 дек 2011, 00:45
Размер: 1.37 ГБ
Сидеров: 19
Личеров: 9
Автор

СообщениеДобавлено: 11 дек 2011, 00:45 

Не в сети
Супермодератор
Аватара пользователя
Дата регистрации:
22 май 2010, 11:03
Возраст: 33
Спасибо: 7730 / 13
Сообщения: 49846
Коллекция "Золотой глобус". Фильм 5 - Франция. Замки Луары. История, запечатленная в камне


Перевод: Профессиональный (полное дублирование), cубтитры: отсутствуют
Формат: DVDRip-AVC, MKV, H.264, AC3

Страна: Германия
Режиссер: Майкл Линдер
Жанр: путешествия и туризм

Продолжительность: 01:22:00
Год выпуска: 2008

Описание: Поездка по долине Луары - увлекательное путешествие в прошлое. Эта живописная местность уже в Средневековье привлекала французских королей и вельмож, которые выстроили здесь около 300 великолепных замков. Шамбор, Вилландри, Блуа и Шенонсо - эти названия напоминают о тех временах, когда "королевская долина" была важнейшим политическим, экономическим и культурным центром Франции. В своих прекрасных замках монархи и высшая знать вершили государственную политику, плели интриги, а на досуге заводили романы и предавались развлечениям. В роскошных дворцах королей и аристократов гостили крупнейшие писатели и художники, творениями которых мы восхищаемся по сей день. С этой местностью связана деятельность таких людей, как Екатерина Медичи, Людовик XI и Жанна д'Арк. Однако наше кинопутешествие не сводится только к историческим заметкам. Долина Луары - это также романтические пейзажи, живописные городки, таинственные гроты, подземные поселения и... изумительная кухня.

Видео: 720x528 (1.36:1), 25.000 fps, AVC(х264), , ~ 2200 Kbps, 0.179 bit/pixel
Аудио: 48 kHz, AС3 Dolby Digital, 2 ch (L, R), ~ 192 kbps avg

Релиз группа: Автор:




Формат: Matroska
Версия формата: Version 2
Размер файла: 1,37 Гбайт
Продолжительность: 1 ч. 22 м.
Общий поток: 2388 Кбит/сек
Программа кодирования: XviD4PSP 6.0 / 53.6.0
Библиотека кодирования: XviD4PSP 6.0 / 53.6.0

Видео
Идентификатор: 1
Формат: AVC
Формат/Информация: Advanced Video Codec
Профиль формата:
Параметр CABAC формата: Да
Параметр ReFrames формата: 3 кадра
Идентификатор кодека: V_MPEG4/ISO/AVC
Продолжительность: 1 ч. 22 м.
Битрейт: 2200 Кбит/сек
Ширина: 720 пикс.
Высота: 576 пикс.
Соотношение сторон: 4:3
Режим частоты кадров: Переменный
Частота кадров: 25,000 кадр/сек
Стандарт вещания: PAL
Цветовое пространство: YUV
Подвыборка цветности: 4:2:0
Битовая глубина: 8 бит
Тип развёртки: Прогрессивная
Бит/(Пиксели*Кадры): 0.212
Размер потока: 1,24 Гбайт (90%)
Библиотека кодирования: x264 core 116 r2019M 9cc407d
Настройки программы: cabac=1 / ref=3 / deblock=1:0:0 / analyse=0x3:0x133 / me=dia / subme=5 / psy=1 / psy_rd=1.00:0.20 / mixed_ref=1 / me_range=16 / chroma_me=1 / trellis=0 / 8x8dct=1 / cqm=0 / deadzone=21,11 / fast_pskip=1 / chroma_qp_offset=0 / threads=6 / sliced_threads=0 / nr=0 / decimate=1 / interlaced=0 / bluray_compat=0 / constrained_intra=0 / bframes=3 / b_pyramid=1 / b_adapt=0 / b_bias=0 / direct=3 / weightb=1 / open_gop=0 / weightp=0 / keyint=250 / keyint_min=25 / scenecut=40 / intra_refresh=0 / rc_lookahead=40 / rc=abr / mbtree=1 / bitrate=2200 / ratetol=1.0 / qcomp=0.60 / qpmin=10 / qpmax=51 / qpstep=4 / ip_ratio=1.40 / aq=1:1.00

Аудио
Идентификатор: 2
Формат: AC-3
Формат/Информация: Audio Coding 3
Расширение режима: CM (complete main)
Идентификатор кодека: A_AC3
Продолжительность: 1 ч. 22 м.
Вид битрейта: Постоянный
Битрейт: 192 Кбит/сек
Каналы: 2 канала
Расположение каналов: Front: L R
Частота: 48,0 КГц
Битовая глубина: 16 бит
Метод сжатия: С потерями
Размер потока: 113 Мбайт (8%)
Язык: Russian















Поделиться:



Вернуться к началу
 Профиль Отправить личное сообщение  
 
   Похожие торренты   Автор   Торрент   Размер 
В этой теме нет новых непрочитанных сообщений. Путешествия Гулливера / Gulliver's Travels [Фэнтези, приключения, семейный, 1996] DVDRip, Mvo

salma3

39 | 13

2.19 ГБ

В этой теме нет новых непрочитанных сообщений. Орёл и Решка. Рай и Ад [S13] ( Реалити-шоу, путешествия, познавательный, 2017) WEBRip 720p от New-Team

marya111

139 | 48

2.43 ГБ

В этой теме нет новых непрочитанных сообщений. Непутевые заметки с Дмитрием Крыловым [01-03] ( Документальный, познавательный, путешествие, туризм, 2017) HDTVRip от Files-х

marya111

15 | 3

947.26 МБ

В этой теме нет новых непрочитанных сообщений. Непутевые заметки с Дмитрием Крыловым [01-03] (Документальный, познавательный, путешествие, туризм, 2017) HDTVRip от Files-х

marya111

32 | 5

567.35 МБ

В этой теме нет новых непрочитанных сообщений. National Geographic. Анаконда. Тихий убийца / Anaconda. Silent killer [Документальный, путешествия, природа, 2014] HDTV 1080i, Dub

salma3

84 | 54

3.17 ГБ

В этой теме нет новых непрочитанных сообщений. Discovery. Звездное выживание с Беаром Гриллсом / Running Wild Bear Grylls [03x01] [природа, путешествия, экстрим, 2016] HDTVRip, Dvo

salma3

25 | 35

1 ГБ

В этой теме нет новых непрочитанных сообщений. Золотой берег / Guldkysten [драма, мелодрама, история, 2015] WEB-DLRip, Mvo

salma3

174 | 24

1.37 ГБ


Начать новую тему Ответить на тему  [ 1 сообщение ] 




Для Мосгорсуда, Роскомнадзора и рекламодателей:: mosgorsud-torrent[собачка]yandex.ru
cron