Торрент файл
скачать торрент магнет ссылка Добавлен: 26 май 2015, 01:55
Размер: 2.76 ГБ
Сидеров: 39
Личеров: 2
Автор

СообщениеДобавлено: 26 май 2015, 01:55 

Не в сети
Супермодератор
Аватара пользователя
Дата регистрации:
06 июн 2014, 07:51
Спасибо: 616 / 0
Сообщения: 2001
Название: Золотой Глобус: Бавария
Оригинальное название: Golden Globe: Bayern
Год выпуска: 2010
Страна: Германия
Жанр: документальный
Продолжительность: 01:59:58
Перевод: профессиональный одноголосый
Описание: На западе — Линдау и Боденское озеро, на востоке — национальный парк Берхтесгаден и озеро Кёнигзее, на юге Альпы, а между ними — Бавария, считающаяся красивейшей из земель Германии...
Качество: BDRip AVC Сравнение с исходником
Формат: MKV
Видео: MPEG-4 AVC, 2784 Кбит/с, 1024x576, 25 кадра/с
Аудио 1: русский, AC3, 192 kbps, 2 ch, 48 kHz [профессиональный одноголосый, DVD R5]
Аудио 2: немецкий, AC3, 256 kbps, 2 ch, 48 kHz [оригинал]
Общее
Уникальный идентификатор : 199477719631027434488316293090932601233 (0x961202E7AC42630D84DBC1FA06D2B191)
Полное имя : D:VideoЗолотой Глобус.Бавария.2010.BDRip.AVC.mkv
Формат : Matroska
Версия формата : Version 4 / Version 2
Размер файла : 2,76 Гбайт
Продолжительность : 1 ч. 59 м.
Общий поток : 3298 Кбит/сек
Название фильма : BDRip -- STarankov
Дата кодирования : UTC 2015-05-21 05:29:16
Программа кодирования : mkvmerge v7.9.0 ('Birds') 64bit
Библиотека кодирования : libebml v1.3.1 + libmatroska v1.4.2
DURATION : 01:59:58.624000000
NUMBER_OF_FRAMES : 224957
NUMBER_OF_BYTES : 230355968
_STATISTICS_WRITING_APP : mkvmerge v7.9.0 ('Birds') 64bit
_STATISTICS_WRITING_DATE_UTC : 2015-05-21 05:29:16
_STATISTICS_TAGS : BPS DURATION NUMBER_OF_FRAMES NUMBER_OF_BYTES
Видео
Идентификатор : 1
Формат : AVC
Формат/Информация : Advanced Video Codec
Профиль формата : High@L4.1
Параметр CABAC формата : Да
Параметр ReFrames формата : 9 кадров
Идентификатор кодека : V_MPEG4/ISO/AVC
Продолжительность : 1 ч. 59 м.
Битрейт : 2784 Кбит/сек
Ширина : 1024 пикселя
Высота : 576 пикселей
Соотношение сторон : 16:9
Режим частоты кадров : Постоянный
Частота кадров : 25,000 кадров/сек
Цветовое пространство : YUV
Субдискретизация насыщенности : 4:2:0
Битовая глубина : 8 бит
Тип развёртки : Прогрессивная
Бит/(Пиксели*Кадры) : 0.189
Размер потока : 2,33 Гбайт (84%)
Библиотека кодирования : x264 core 146 r2538 121396c
Настройки программы : cabac=1 / ref=9 / deblock=1:-1:-1 / analyse=0x3:0x113 / me=umh / subme=10 / psy=1 / psy_rd=1.00:0.15 / mixed_ref=1 / me_range=32 / chroma_me=1 / trellis=2 / 8x8dct=1 / cqm=0 / deadzone=21,11 / fast_pskip=1 / chroma_qp_offset=-3 / threads=6 / lookahead_threads=1 / sliced_threads=0 / nr=0 / decimate=1 / interlaced=0 / bluray_compat=0 / constrained_intra=0 / bframes=12 / b_pyramid=2 / b_adapt=2 / b_bias=0 / direct=1 / weightb=1 / open_gop=0 / weightp=2 / keyint=250 / keyint_min=25 / scenecut=40 / intra_refresh=0 / rc_lookahead=40 / rc=crf / mbtree=0 / crf=18.7 / qcomp=0.60 / qpmin=0 / qpmax=69 / qpstep=4 / vbv_maxrate=40000 / vbv_bufsize=50000 / crf_max=0.0 / nal_hrd=none / filler=0 / ip_ratio=1.40 / pb_ratio=1.30 / aq=1:1.00
Язык : German
Default : Да
Forced : Нет
DURATION : 01:59:58.160000000
NUMBER_OF_FRAMES : 179954
NUMBER_OF_BYTES : 2562741207
_STATISTICS_WRITING_APP : mkvmerge v7.9.0 ('Birds') 64bit
_STATISTICS_WRITING_DATE_UTC : 2015-05-21 05:29:16
_STATISTICS_TAGS : BPS DURATION NUMBER_OF_FRAMES NUMBER_OF_BYTES
Аудио #1
Идентификатор : 2
Формат : AC-3
Формат/Информация : Audio Coding 3
Расширение режима : CM (complete main)
Параметр Endianness формата : Big
Идентификатор кодека : A_AC3
Продолжительность : 1 ч. 59 м.
Вид битрейта : Постоянный
Битрейт : 192 Кбит/сек
Каналы : 2 канала
Расположение каналов : Front: L R
Частота : 48,0 КГц
Битовая глубина : 16 бит
Метод сжатия : С потерями
Размер потока : 165 Мбайт (6%)
Заголовок : одноголосый закадровый (DVD R5)
Язык : Russian
Default : Да
Forced : Нет
Аудио #2
Идентификатор : 3
Формат : AC-3
Формат/Информация : Audio Coding 3
Расширение режима : CM (complete main)
Параметр Endianness формата : Big
Идентификатор кодека : A_AC3
Продолжительность : 1 ч. 59 м.
Вид битрейта : Постоянный
Битрейт : 256 Кбит/сек
Каналы : 2 канала
Расположение каналов : Front: L R
Частота : 48,0 КГц
Битовая глубина : 16 бит
Метод сжатия : С потерями
Размер потока : 220 Мбайт (8%)
Заголовок : Original
Язык : German
Default : Нет
Forced : Нет




реклама партнёра


Вернуться к началу
 Профиль Отправить личное сообщение  
 
   Похожие торренты   Автор   Торрент   Размер 
В этой теме нет новых непрочитанных сообщений. Золотой Глобус: Бавария / Golden Globe: Bayern [2010, документальный, BDRip 720p]

Nickolas3435

34 | 2

4.31 ГБ

В этой теме нет новых непрочитанных сообщений. Операция Золотой Феникс / Operation Golden Phoenix [Боевик, 1994] LDRip, Avo

salma3

79 | 15

1.45 ГБ

В этой теме нет новых непрочитанных сообщений. Золотой ребенок / The Golden Child [фэнтези, боевик, комедия, 1986] WEBRip 1080p, Mvo

salma3

80 | 43

11.16 ГБ

В этой теме нет новых непрочитанных сообщений. Таврида. Легенда о золотой колыбели (Россия) [Документальный, познавательный, 2015] HDTVRip

Dracon

207 | 54

547.2 МБ

В этой теме нет новых непрочитанных сообщений. Таврида. Легенда о золотой колыбели [2015, Документальный, познавательный, HDTV 1080]

Nickolas3435

41 | 1

1.93 ГБ

В этой теме нет новых непрочитанных сообщений. Golden Void - Golden Void [2012, Psychedelic Rock, MP3]

PriZraK

0 | 1

83.78 МБ

В этой теме нет новых непрочитанных сообщений. Человек с золотым пистолетом / The Man with the Golden Gun [боевик, триллер, комедия, 1974] BDRip-AVC, Mvo

salma3

27 | 21

2.35 ГБ


Начать новую тему Ответить на тему  [ 1 сообщение ] 




Для Мосгорсуда, Роскомнадзора и рекламодателей:: mosgorsud-torrent[собачка]yandex.ru