Торрент файл
скачать торрент магнет ссылка Добавлен: 26 май 2015, 01:53
Размер: 4.31 ГБ
Сидеров: 34
Личеров: 2
Автор

СообщениеДобавлено: 26 май 2015, 01:53 

Не в сети
Супермодератор
Аватара пользователя
Дата регистрации:
06 июн 2014, 07:51
Спасибо: 597 / 0
Сообщения: 2002

Название: Золотой Глобус: Бавария
Оригинальное название: Golden Globe: Bayern
Год выпуска: 2010
Страна: Германия
Жанр: документальный
Продолжительность: 01:59:58
Перевод: профессиональный одноголосый
Описание: На западе — Линдау и Боденское озеро, на востоке — национальный парк Берхтесгаден и озеро Кёнигзее, на юге Альпы, а между ними — Бавария, считающаяся красивейшей из земель Германии...
Качество: BDRip 720p Сравнение с исходником
Формат: MKV
Видео: MPEG-4 AVC, 4594 Кбит/с, 1280x720, 25 кадра/с
Аудио 1: русский, AC3, 192 kbps, 2 ch, 48 kHz [профессиональный одноголосый, DVD R5]
Аудио 2: немецкий, AC3, 256 kbps, 2 ch, 48 kHz [оригинал]
Общее
Уникальный идентификатор : 241224811285856570431986934089545734857 (0xB57A356FE2375764BC7CE8A531B4DAC9)
Полное имя : D:VideoЗолотой Глобус.Бавария.2010.BDRip.720p.mkv
Формат : Matroska
Версия формата : Version 4 / Version 2
Размер файла : 4,31 Гбайт
Продолжительность : 1 ч. 59 м.
Общий поток : 5144 Кбит/сек
Название фильма : BDRip -- STarankov
Дата кодирования : UTC 2015-05-21 05:36:44
Программа кодирования : mkvmerge v7.9.0 ('Birds') 64bit
Библиотека кодирования : libebml v1.3.1 + libmatroska v1.4.2
_STATISTICS_WRITING_APP : mkvmerge v7.9.0 ('Birds') 64bit
_STATISTICS_WRITING_DATE_UTC : 2015-05-21 05:36:44
_STATISTICS_TAGS : BPS DURATION NUMBER_OF_FRAMES NUMBER_OF_BYTES
DURATION : 01:59:58.624000000
NUMBER_OF_FRAMES : 224957
NUMBER_OF_BYTES : 230355968
Видео
Идентификатор : 1
Формат : AVC
Формат/Информация : Advanced Video Codec
Профиль формата : High@L4.1
Параметр CABAC формата : Да
Параметр ReFrames формата : 9 кадров
Идентификатор кодека : V_MPEG4/ISO/AVC
Продолжительность : 1 ч. 59 м.
Битрейт : 4594 Кбит/сек
Ширина : 1280 пикселей
Высота : 720 пикселей
Соотношение сторон : 16:9
Режим частоты кадров : Постоянный
Частота кадров : 25,000 кадров/сек
Цветовое пространство : YUV
Субдискретизация насыщенности : 4:2:0
Битовая глубина : 8 бит
Тип развёртки : Прогрессивная
Бит/(Пиксели*Кадры) : 0.199
Размер потока : 3,85 Гбайт (89%)
Библиотека кодирования : x264 core 146 r2538 121396c
Настройки программы : cabac=1 / ref=9 / deblock=1:-1:-1 / analyse=0x3:0x113 / me=umh / subme=10 / psy=1 / psy_rd=1.00:0.15 / mixed_ref=1 / me_range=32 / chroma_me=1 / trellis=2 / 8x8dct=1 / cqm=0 / deadzone=21,11 / fast_pskip=1 / chroma_qp_offset=-3 / threads=6 / lookahead_threads=1 / sliced_threads=0 / nr=0 / decimate=1 / interlaced=0 / bluray_compat=0 / constrained_intra=0 / bframes=12 / b_pyramid=2 / b_adapt=2 / b_bias=0 / direct=1 / weightb=1 / open_gop=0 / weightp=2 / keyint=250 / keyint_min=25 / scenecut=40 / intra_refresh=0 / rc_lookahead=40 / rc=crf / mbtree=0 / crf=18.7 / qcomp=0.60 / qpmin=0 / qpmax=69 / qpstep=4 / vbv_maxrate=40000 / vbv_bufsize=50000 / crf_max=0.0 / nal_hrd=none / filler=0 / ip_ratio=1.40 / pb_ratio=1.30 / aq=1:1.00
Язык : German
Default : Да
Forced : Нет
DURATION : 01:59:58.160000000
NUMBER_OF_FRAMES : 179954
NUMBER_OF_BYTES : 4223929642
_STATISTICS_WRITING_APP : mkvmerge v7.9.0 ('Birds') 64bit
_STATISTICS_WRITING_DATE_UTC : 2015-05-21 05:36:44
_STATISTICS_TAGS : BPS DURATION NUMBER_OF_FRAMES NUMBER_OF_BYTES
Аудио #1
Идентификатор : 2
Формат : AC-3
Формат/Информация : Audio Coding 3
Расширение режима : CM (complete main)
Параметр Endianness формата : Big
Идентификатор кодека : A_AC3
Продолжительность : 1 ч. 59 м.
Вид битрейта : Постоянный
Битрейт : 192 Кбит/сек
Каналы : 2 канала
Расположение каналов : Front: L R
Частота : 48,0 КГц
Битовая глубина : 16 бит
Метод сжатия : С потерями
Размер потока : 165 Мбайт (4%)
Заголовок : одноголосый закадровый (DVD R5)
Язык : Russian
Default : Да
Forced : Нет
Аудио #2
Идентификатор : 3
Формат : AC-3
Формат/Информация : Audio Coding 3
Расширение режима : CM (complete main)
Параметр Endianness формата : Big
Идентификатор кодека : A_AC3
Продолжительность : 1 ч. 59 м.
Вид битрейта : Постоянный
Битрейт : 256 Кбит/сек
Каналы : 2 канала
Расположение каналов : Front: L R
Частота : 48,0 КГц
Битовая глубина : 16 бит
Метод сжатия : С потерями
Размер потока : 220 Мбайт (5%)
Заголовок : Original
Язык : German
Default : Нет
Forced : Нет




реклама партнёра


Вернуться к началу
 Профиль Отправить личное сообщение  
 
   Похожие торренты   Автор   Торрент   Размер 
В этой теме нет новых непрочитанных сообщений. Золотой Глобус: Бавария / Golden Globe: Bayern [2010, документальный, BDRip AVC]

Nickolas3435

39 | 2

2.76 ГБ

В этой теме нет новых непрочитанных сообщений. Операция Золотой Феникс / Operation Golden Phoenix [Боевик, 1994] LDRip, Avo

salma3

99 | 15

1.45 ГБ

В этой теме нет новых непрочитанных сообщений. Золотой мальчик / Un ragazzo d'oro (Пупи Авати) [Драма, 2014] BDRip 720p, Mvo [Лицензия]

Dracon

12 | 1

3.68 ГБ

В этой теме нет новых непрочитанных сообщений. Футбол. Лига чемпионов 2016-17. 1/8 финала. Первый матч. Бавария Мюнхен (Германия) - Арсенал (Англия) [15.02] (2017) HDTVRip 720p | 50 fps

salma3

162 | 30

3.25 ГБ

В этой теме нет новых непрочитанных сообщений. Футбол. Лига чемпионов 2016-17. 1/8 финала. Ответный матч. Арсенал (Англия) - Бавария Мюнхен (Германия) [07.03] (2017) HDTVRip 720p | 50 fps

salma3

154 | 36

3.32 ГБ

В этой теме нет новых непрочитанных сообщений. Географ глобус пропил [Драма, 2013] BDRip [Лицензия]

Kochesov

128 | 6

1.46 ГБ

В этой теме нет новых непрочитанных сообщений. Футбол. Чемпионат Германии 2016-17. 16-й тур. Бавария (Мюнхен) - РБ Лейпциг (Лейпциг) [21.12] (2016) HDTVRip 720p | 50 fps

salma3

54 | 19

2.99 ГБ


Начать новую тему Ответить на тему  [ 1 сообщение ] 




Для Мосгорсуда, Роскомнадзора и рекламодателей:: mosgorsud-torrent[собачка]yandex.ru