Торрент файл
скачать торрент магнет ссылка Добавлен: 21 мар 2015, 09:49
Размер: 1.46 ГБ
Сидеров: 39
Личеров: 5
Автор

СообщениеДобавлено: 21 мар 2015, 09:49 

Не в сети
Супермодератор
Аватара пользователя
Дата регистрации:
06 июн 2014, 07:51
Спасибо: 588 / 0
Сообщения: 2002
Солнечный архипелаг

Год выпуска: 2009
Страна: Германия, Польша, Россия
Студия: Komplett-Media GmbH
Жанр: документальный
Продолжительность: 01:29:40

Перевод: Профессиональный (дикторский закадровый)
Субтитры: нет
Оригинальная аудиодорожка: нет

Описание:
«Киклос», что значит «круг», - так жители Микен назвали кольцо, состоящее из 56 крупных и более мелких, скалистых островов, лежащих меж Афинами и Критом в юго-западной части Эгейского моря. Лишь 24 из них обитаемы. Самые маленькие из них еще не пострадали от жителей цивилизованного мира, зато самые крупные посещают миллионы туристов. Тира (Санторини) – это кусочек суши, оставшийся после мощного извержения вулкана на острове, который давно, подобно таинственной Атлантиде, погрузился в воду. Через несколько лет, когда лава застыла, остров был заселен заново. На кальдере появились небольшие живописные города, например, Тира и Ойя. Иос известен как место, где предположительно скрывался Гомер, но молодежь больше привлекают многочисленные дискотеки, где веселье длится до самого утра. Наксос, самый большой остров архипелага, несмотря на наплыв туристов, сохранил свой естественный облик. Разнообразные пейзажи, памятники старины, идиллические поселения и солнечное побережье гарантируют удачный отдых. Соседний остров Парос с городом Пароикия, самым важным портом на архипелаге, и городами Науса и Лефкес, которые хоть и меньше Пароикии, но намного романтичнее, - это Мекка для туристов. На Миконосе царит нескончаемое веселье, в пик сезона остров трещит по швам. От громкой музыке можно скрыться на маленьком необитаемом острове Делос, являющимся самым знаменитым местом проведения археологических раскопок во всей Греции...




Исходник: DVD5 R5
Тип релиза: DVDRip
Контейнер: AVI

Видео: 704x528 (4:3), 25 fps, XviD ~ 1933 kbps avg, 0.208 bit/pixel
Аудио: 48 kHz, Dolby AC3 2.0, 192.00 kbps Русский
Аудио: 48 kHz, Dolby AC3 2.0, 192.00 kbps Украинский

Общее
Полное имя : Kiklady.2009.DVDRip_[New-team]_by_AVP_Studio.avi
Формат : AVI
Формат/Информация : Audio Video Interleave
Размер файла : 1,46 Гбайт
Продолжительность : 1 ч. 29 м.
Общий поток : 2331 Кбит/сек
Программа кодирования : VirtualDubModRus 1.5.10.2 (build 2542/release)
Библиотека кодирования : VirtualDubMod build 2542/release

Видео
Идентификатор : 0
Формат : MPEG-4 Visual
Профиль формата : Advanced Simple@L5
Параметр BVOP формата : 1
Параметр QPel формата : Нет
Параметр GMC формата : Без точки перехода
Параметр матрицы формата : Выборочная
Идентификатор кодека : XVID
Идентификатор кодека/Подсказка : XviD
Продолжительность : 1 ч. 29 м.
Битрейт : 1933 Кбит/сек
Ширина : 704 пикселя
Высота : 528 пикселей
Соотношение сторон : 4:3
Частота кадров : 25,000 кадров/сек
Цветовое пространство : YUV
Субдискретизация насыщенности : 4:2:0
Битовая глубина : 8 бит
Тип развёртки : Прогрессивная
Метод сжатия : С потерями
Бит/(Пиксели*Кадры) : 0.208
Размер потока : 1,21 Гбайт (83%)
Библиотека кодирования : XviD 73

Аудио #1
Идентификатор : 1
Формат : AC-3
Формат/Информация : Audio Coding 3
Расширение режима : CM (complete main)
Параметр Endianness формата : Big
Идентификатор кодека : 2000
Продолжительность : 1 ч. 29 м.
Вид битрейта : Постоянный
Битрейт : 192 Кбит/сек
Каналы : 2 канала
Расположение каналов : Front: L R
Частота : 48,0 КГц
Битовая глубина : 16 бит
Метод сжатия : С потерями
Размер потока : 123 Мбайт (8%)
Выравнивание : Разделение по промежуткам
Продолжительность промежутка : 40 мс. (1,00 видеокадр)
Время предзагрузки промежутка : 500 мс.

Аудио #2
Идентификатор : 2
Формат : AC-3
Формат/Информация : Audio Coding 3
Расширение режима : CM (complete main)
Параметр Endianness формата : Big
Идентификатор кодека : 2000
Продолжительность : 1 ч. 29 м.
Вид битрейта : Постоянный
Битрейт : 192 Кбит/сек
Каналы : 2 канала
Расположение каналов : Front: L R
Частота : 48,0 КГц
Битовая глубина : 16 бит
Метод сжатия : С потерями
Размер потока : 123 Мбайт (8%)
Выравнивание : Разделение по промежуткам
Продолжительность промежутка : 40 мс. (1,00 видеокадр)
Время предзагрузки промежутка : 500 мс




реклама партнёра


Вернуться к началу
 Профиль Отправить личное сообщение  
 
   Похожие торренты   Автор   Торрент   Размер 
В этой теме нет новых непрочитанных сообщений. Сборник - Поймай кураж на Европе Плюс №6 [2014, Pop, MP3]

Nickolas3435

210 | 17

656.94 МБ

В этой теме нет новых непрочитанных сообщений. Discovery. Игра на жизнь / Survive That! [02х01-07] [2014, Документальный, путешествие, приключение, HDTVRip]

Nickolas3435

6 | 6

3.73 ГБ

В этой теме нет новых непрочитанных сообщений. По следам великих русских путешественников [01-07 из 07] [Документальный, познавательный, исследования, путешествие, 2014] HDTVRip

Dracon

57 | 7

4.52 ГБ

В этой теме нет новых непрочитанных сообщений. Discovery. Игра на жизнь / Survive That! [02х01-07] [2014, Документальный, путешествие, приключение, HDTV 1080i]

Nickolas3435

4 | 11

15.93 ГБ

В этой теме нет новых непрочитанных сообщений. Непутевые заметки с Дмитрием Крыловым [01-03] (Документальный, познавательный, путешествие, туризм, 2017) HDTVRip от Files-х

marya111

32 | 4

567.35 МБ

В этой теме нет новых непрочитанных сообщений. Непутевые заметки с Дмитрием Крыловым [01-03] ( Документальный, познавательный, путешествие, туризм, 2017) HDTVRip от Files-х

marya111

15 | 2

947.26 МБ

В этой теме нет новых непрочитанных сообщений. Россия. Гений места [01-12] (Юрий Сокол) [Телепередача, документальный, познавательный, путешествие, экскурсия, 2014-2015] HDTVRip

Dracon

51 | 19

6.53 ГБ


Начать новую тему Ответить на тему  [ 1 сообщение ] 




Для Мосгорсуда, Роскомнадзора и рекламодателей:: mosgorsud-torrent[собачка]yandex.ru