Торрент файл
скачать торрент магнет ссылка Добавлен: 04 сен 2012, 13:00
Размер: 741.5 МБ
Сидеров: 3
Личеров: 3
Статус: (Dracon)
Автор

СообщениеДобавлено: 04 сен 2012, 13:00 

Не в сети
Супермодератор
Аватара пользователя
Дата регистрации:
15 фев 2012, 16:44
Возраст: 27
Спасибо: 5858 / 2114
Сообщения: 27104
Год выпуска: 2009
Страна: Греция

Жанр:документальный
Продолжительность: 01:10:07

Перевод: Профессиональный (одноголосый)
Субтитры: нет

Режиссер: Михаил Мичаилидис / Michail Michailidis

Описание: Фильм об истории Греции, о знаменитых скалах Метеора и их монастырях, столице Греции - Афинах и горе Афон (музеи, история, архитектура, природа)





Исходник: DVD5
Качество: DVDRip
Формат: AVI

Видео: 688x512 (4:3), 25 fps, XviD ~ 1341 kbps avg, 0.152 bit/pixel
Аудио: 48 kHz, MP3, 2 ch, 128.00 kbps Constant Русский

Общее
Полное имя: Meteora.P.2009Meteora.P.2009.DVDRip.avi
Формат: AVI
Формат/Информация: Audio Video Interleave
Размер файла: 741 Мбайт
Продолжительность: 1 ч. 10 м.
Общий поток: 1478 Кбит/сек
Программа кодирования: VirtualDubMod 1.5.10.2 (build 2540/release)
Библиотека кодирования: VirtualDubMod build 2540/release

Видео
Идентификатор: 0
Формат: MPEG-4 Visual
Профиль формата: Advanced Simple@L5
Параметр BVOP формата: 1
Параметр QPel формата: Нет
Параметр GMC формата: Без точки перехода
Параметр матрицы формата: Выборочная
Режим смешивания: Сжатый битовый поток
Идентификатор кодека: XVID
Идентификатор кодека/Подсказка: XviD
Продолжительность: 1 ч. 10 м.
Битрейт: 1341 Кбит/сек
Ширина: 688 пикселей
Высота: 512 пикселей
Соотношение сторон: 4:3
Частота кадров: 25,000 кадров/сек
Цветовое пространство: YUV
Субдискретизация насыщенности: 4:2:0
Битовая глубина: 8 бит
Тип развёртки: Прогрессивная
Метод сжатия: С потерями
Бит/(Пиксели*Кадры): 0.152
Размер потока: 672 Мбайт (91%)
Библиотека кодирования: XviD 1.2.0.dev47 (UTC 2006-11-01)

Аудио
Идентификатор: 1
Формат: MPEG Audio
Версия формата: Version 1
Профиль формата: Layer 3
Идентификатор кодека: 55
Идентификатор кодека/Подсказка: MP3
Продолжительность: 1 ч. 10 м.
Вид битрейта: Постоянный
Битрейт: 128 Кбит/сек
Каналы: 2 канала
Частота: 48,0 КГц
Метод сжатия: С потерями
Размер потока: 64,2 Мбайт (9%)
Выравнивание: Соединение по промежуткам
Продолжительность промежутка: 40мс. (1,00 видеокадр)
Время предзагрузки промежутка: 504мс.
Библиотека кодирования: LAME3.97
Настройки программы: -m s -V 4 -q 2 -lowpass 17 -b 128







реклама партнёра


Вернуться к началу
 Профиль Отправить личное сообщение  
 
   Похожие торренты   Автор   Торрент   Размер 
В этой теме нет новых непрочитанных сообщений. Scorpions - MTV Unplugged: Live In Athens (2CD) [2013, Hard Rock, MP3]

PriZraK

33 | 3

262.02 МБ

В этой теме нет новых непрочитанных сообщений. Путешествие по Европе. Выпуск №50: Киклады [2009, документальный, DVDRip]

Nickolas3435

39 | 5

1.46 ГБ

В этой теме нет новых непрочитанных сообщений. Знаменитые самолеты / Great Planes / 2 сезон: 1-8 серии из 10 [документальный, история авиации, 2009] DVDRip, Avo

salma3

5 | 4

5.46 ГБ

В этой теме нет новых непрочитанных сообщений. Берлинская стена. Траектория падения (Документальный, история, политика, 2009) IPTVRip от Pshichko66

marya111

9 | 1

641.08 МБ

В этой теме нет новых непрочитанных сообщений. Hострадамус. По ту сторону пророчества / Nostradamus. Beyond The Prophesies (Эд Фостер, Жоель Бейли) [2009, документальный, SATRip] VO

salma3

0 | 1

593.91 МБ

В этой теме нет новых непрочитанных сообщений. Эсминец 21 века / 21st Century Warship [2009, документальный, военная техника, флот, WEBRip] VO

salma3

0 | 1

191.97 МБ

В этой теме нет новых непрочитанных сообщений. Документальный спецпроект [01] (Документальный, познавательный, исследавание, 2017) SATRip от Files-х

marya111

64 | 22

4.3 ГБ


Начать новую тему Ответить на тему  [ 1 сообщение ] 




Для Мосгорсуда, Роскомнадзора и рекламодателей:: mosgorsud-torrent[собачка]yandex.ru