Торрент файл
скачать торрент магнет ссылка Добавлен: 05 ноя 2011, 08:47
Размер: 1.13 ГБ
Сидеров: 9
Личеров: 5
Автор

СообщениеДобавлено: 05 ноя 2011, 08:47 

Не в сети
Супермодератор
Аватара пользователя
Дата регистрации:
22 май 2010, 11:03
Возраст: 33
Спасибо: 7721 / 13
Сообщения: 49847
Загадки истории: Связь времен / Riddles to histories: Relationship of the timeses




Перевод: Профессиональный (многоголосый, закадровый), cубтитры: отсутствуют

Формат: DVBRip, MPEG, MPEG2, MP2

Страна: США, History Channel

Режиссер: Кевин Бернс / Kevin Burns

Жанр: документальный, научно-популярный, альтернативная история
Продолжительность: 00:43:10
Год выпуска: 2011

Описание: Возможно ли, что разумные формы жизни посетили Землю тысячи лет назад, принеся с собой технологии, кардинально повлиявшие на ход истории и развития человечества? Теория "древних пришельцев", опубликованная в 1968 году в бестселлере Эриха фон Деникена "Колесницы богов", пошатнула представления людей об общеизвестном прогрессе человечества…
Откуда взялись пещерные рисунки странных существ, остатки взлетно-посадочных полос в Перу, индийские тексты, описывающие "летающие машины богов" и др. Возможно ли, что древние пришельцы были хорошо известны нашим предкам или это просто загадки истории?..


Видео: 720 x 576 (PAL, 4:3), 25 fps, MPEG2, 3 409 Kbps avg
Аудио: 48 kHz, MPEG Audio Version 1 (Layer 2), 2 Ch, 256 kbps

Релиз спутникового канала:


Format : MPEG-PS
File size : 1.13 GiB
Duration : 43mn 10s
Overall bit rate : 3 739 Kbps
Writing library : (c) 1998-2008 Womble Multimedia, Inc. / MPEG Video Wizard (08/2008) / Aug 25 2008

Video
ID : 224 (0xE0)
Format : MPEG Video
Format version : Version 2
Format profile : Main@Main
Format settings, BVOP : Yes
Format settings, Matrix : Default
Duration : 43mn 10s
Bit rate mode : Variable
Bit rate : 3 409 Kbps
Nominal bit rate : 15.0 Mbps
Width : 720 pixels
Height : 576 pixels
Display aspect ratio : 4:3
Frame rate : 25.000 fps
Standard : PAL
Color space : YUV
Chroma subsampling : 4:2:0
Bit depth : 8 bits
Scan type : Interlaced
Scan order : Top Field First
Compression mode : Lossy
Bits/(Pixel*Frame) : 0.329
Stream size : 1.03 GiB (91%)
Writing library : (c) 1998-2008 Womble Multimedia, Inc. / MPEG Video Wizard (08/2008) / Aug 25 2008

Audio
ID : 192 (0xC0)
Format : MPEG Audio
Format version : Version 1
Format profile : Layer 2
Duration : 43mn 10s
Bit rate mode : Constant
Bit rate : 256 Kbps
Channel(s) : 2 channels
Sampling rate : 48.0 KHz
Compression mode : Lossy
Delay relative to video : -80ms
Stream size : 79.1 MiB (7%)










Поделиться:



Вернуться к началу
 Профиль Отправить личное сообщение  
 
   Похожие торренты   Автор   Торрент   Размер 
В этой теме нет новых непрочитанных сообщений. История мира за два часа / History of the World in Two Hours (Дуглас Коэн) [2011, документальный, научно-популярный, история, HDRip] MVO

salma3

0 | 0

1.08 ГБ

В этой теме нет новых непрочитанных сообщений. Мастера выживания [2012, документальный, научно-популярный, SATRip] AVO

salma3

0 | 1

501.72 МБ

В этой теме нет новых непрочитанных сообщений. Прорыв / Breakthrough [s01] [Документальный, научно-популярный, 2015] HDTV 1080i, Mvo

salma3

21 | 15

16.18 ГБ

В этой теме нет новых непрочитанных сообщений. Океаны Солнечной системы / Oceans of the Solar System [документальный, научно-популярный, 2015] HDTVRip, Dvo

salma3

223 | 13

698.36 МБ

В этой теме нет новых непрочитанных сообщений. Загадки планеты Земля / Discovery: What on Earth? [01-05 из 05] [Документальный, наука, космос, история, 2015] HDTVRip, Avo

salma3

587 | 131

2.69 ГБ

В этой теме нет новых непрочитанных сообщений. Загадки темной материи / The Mystery of Dark Matter (Сесиль Данжан) [2008, документальный, SATRip]

salma3

0 | 3

638.06 МБ

В этой теме нет новых непрочитанных сообщений. Фантастические существа Мадагаскара / Madagascar's Fantastic Creatures (Эллисон Бин) [2016, документальный, научно-популярный, фауна, флора, HDTVRip] VO

salma3

0 | 0

626.37 МБ


Начать новую тему Ответить на тему  [ 1 сообщение ] 




Для Мосгорсуда, Роскомнадзора и рекламодателей:: mosgorsud-torrent[собачка]yandex.ru
cron