Торрент файл
скачать торрент магнет ссылка Добавлен: 25 фев 2015, 22:11
Размер: 284.07 МБ
Сидеров: 7
Личеров: 4
Автор

СообщениеДобавлено: 25 фев 2015, 22:11 

Не в сети
Дата регистрации:
27 апр 2014, 21:05
Спасибо: 8 / 0
Сообщения: 62
Шамано-жреческий аспект "Дома летающих кинжалов"

Перевод: Не требуется, cубтитры: отсутствуют
Формат: WEBRip, AVI, DivX, MP3
Страна: Россия
Режиссер: Алексей Меняйлов
Жанр: Боевик, фэнтези, мелодрама, драма, приключения
Продолжительность: 00:23:36
Год выпуска: 2015

Описание: [color=darkgreen]Когда автору ролика на Мосфильме впервые предложили написать сценарий полнометражного фильма, то в качестве эталона прекрасного назвали китайский фильм "Дом летающих кинжалов". Красота фильма не в цветовой гармонии, а в шамано-жреческом сюжете...

Видео: 720x406 (1.77:1), 25 fps, DivX Codec 4.x ~1479 kbps avg, 0.20 bit/pixel
Аудио: 48 kHz, MPEG Layer 3, 2 ch, ~192.00 kbps avg

Доп. информация: Партизанская правда партизан


General
Формат : AVI
Формат/Информация : Audio Video Interleave
Размер файла : 284 MiB
Продолжительность : 23mn 37s
Общий поток : 1 682 Kbps

Video
Идентификатор : 0
Формат : MPEG-4 Visual
Параметр BVOP формата : 1
Параметр QPel формата : No
Параметр GMC формата : No warppoints
Параметр матрицы формата : Default (H.263)
Режим смешивания : Packed bitstream
Идентификатор кодека : DX50
Идентификатор кодека/Подсказка : DivX 5
Продолжительность : 23mn 37s
Битрейт : 1 480 Kbps
Ширина : 720 pixels
Высота : 406 pixels
Соотношение сторон : 16:9
Частота кадров : 25.000 fps
Цветовое пространство : YUV
Субдискретизация насыщенности : 4:2:0
Битовая глубина : 8 bits
Тип развёртки : Progressive
Метод сжатия : Lossy
Бит/(Пиксели*Кадры) : 0.203
Размер потока : 250 MiB (88%)
Заголовок : Video
Библиотека кодирования : DivX 2682

Audio
Идентификатор : 1
Формат : MPEG Audio
Версия формата : Version 1
Профиль формата : Layer 3
Режим : Joint stereo
Расширение режима : MS Stereo
Идентификатор кодека : 55
Идентификатор кодека/Подсказка : MP3
Продолжительность : 23mn 37s
Вид битрейта : Constant
Битрейт : 192 Kbps
Каналы : 2 channels
Частота : 48.0 KHz
Метод сжатия : Lossy
Размер потока : 32.4 MiB (11%)
Выравнивание : Split accross interleaves
Продолжительность промежутка : 40 ms (1.00 video frame)
Время предзагрузки промежутка : 500 ms
Заголовок : Audio - en-US01









реклама партнёра


Вернуться к началу
 Профиль Отправить личное сообщение  
 
   Похожие торренты   Автор   Торрент   Размер 
В этой теме нет новых непрочитанных сообщений. Второй признак суженой (Алексей Меняйлов) [2015, самиздат, психология, приключения, WEBRip]

vairgin

26 | 2

185.32 МБ

В этой теме нет новых непрочитанных сообщений. Секрет успеха от древних самураев (Алексей Меняйлов) [2015, самиздат, психология, приключения, WEBRip]

vairgin

21 | 2

582.44 МБ

В этой теме нет новых непрочитанных сообщений. Какое лицо у женщины, которая хочет тебя? (Алексей Меняйлов) [2015, приключения, психология, WEBRip]

vairgin

29 | 9

245.75 МБ

В этой теме нет новых непрочитанных сообщений. Любовные повадки женщин (Алексей Меняйлов) [2013, мелодрама, детектив, приключения, WEBRip]

vairgin

47 | 8

232.9 МБ

В этой теме нет новых непрочитанных сообщений. Возможности древней приметы "посидим на дорожку" (Алексей Меняйлов) [2015, Психология, приключения, военный, WEBRip]

vairgin

39 | 5

326.37 МБ

В этой теме нет новых непрочитанных сообщений. Рокфеллер и Сталин - нюанс аномальной власти (Алексей Меняйлов) [2014, драма, приключения, биография, WEBRip]

vairgin

45 | 6

776.42 МБ

В этой теме нет новых непрочитанных сообщений. Как Украине освободиться от оккупантов (Алексей Меняйлов) [2015, исторический, WEBRip]

vairgin

25 | 12

167.74 МБ


Начать новую тему Ответить на тему  [ 1 сообщение ] 




Для Мосгорсуда, Роскомнадзора и рекламодателей:: mosgorsud-torrent[собачка]yandex.ru